Статистика раздачи
Размер:  58 MB   |    Зарегистрирован:  2 года 9 месяцев   |    .torrent скачан:  274 раза   |   

Пиры будут получены при скачивании

 

Скачать порно Игорь и Вика. "Будни" через торрент бесплатно :: UnionPron.org

 
 
Автор Сообщение

Sakura

avatar Sakura


Игорь и Вика. "Будни"

Год производства: 2014 г.
Жанр: Anal Sex, Blowjob, Cum Shot
Продолжительность: 00:03:26 + 00:02:39

Описание:
Трудовые будни Игорька и Викуси

Качество видео: CamRip
Формат видео: AVI
Общее
Полное имя Мы.avi
Формат : AVI
Формат/Информация : Audio Video Interleave
Размер файла : 32,7 Мбайт
Продолжительность : 3 м. 25 с.
Общий поток : 1336 Кбит/сек
Программа кодирования : MEncoder SVN-r33883(20110719-gcc4.5.2)
Библиотека кодирования : MPlayer

Видео
Идентификатор : 0
Формат : MPEG-4 Visual
Профиль формата : Advanced Simple@L5
Параметр BVOP формата : 2
Параметр QPel формата : Нет
Параметр GMC формата : Без точки перехода
Параметр матрицы формата : Default (H.263)
Идентификатор кодека : XVID
Идентификатор кодека/Подсказка : XviD
Продолжительность : 3 м. 25 с.
Битрейт : 1195 Кбит/сек
Ширина : 1072 пикселя
Высота : 600 пикселей
Соотношение сторон : 16:9
Соотношение сторон в оригинале : 16:9
Частота кадров : 25,000 кадров/сек
Цветовое пространство : YUV
Субдискретизация насыщенности : 4:2:0
Битовая глубина : 8 бит
Тип развёртки : Прогрессивная
Метод сжатия : С потерями
Бит/(Пиксели*Кадры) : 0.074
Размер потока : 29,3 Мбайт (89%)
Библиотека кодирования : XviD 1.2.1 (UTC 2008-12-04)

Аудио
Идентификатор : 1
Формат : MPEG Audio
Версия формата : Version 1
Профиль формата : Layer 3
Режим : Joint stereo
Расширение режима : MS Stereo
Идентификатор кодека : 55
Идентификатор кодека/Подсказка : MP3
Продолжительность : 3 м. 25 с.
Вид битрейта : Постоянный
Битрейт : 128 Кбит/сек
Каналы : 2 канала
Частота : 44,1 КГц
Метод сжатия : С потерями
Задержка видео : 40 мс.
Размер потока : 3,14 Мбайт (10%)
Выравнивание : Соединение по промежуткам
Продолжительность промежутка : 26 мс. (0,65 видеокадр)
Время предзагрузки промежутка : 522 мс.
Библиотека кодирования : LAME3.98.4ЄЄЄЄЄЄЄЄЄЄ
Общее
Полное имя В попочку.avi
Формат : AVI
Формат/Информация : Audio Video Interleave
Размер файла : 25,3 Мбайт
Продолжительность : 2 м. 39 с.
Общий поток : 1332 Кбит/сек
Программа кодирования : MEncoder SVN-r33883(20110719-gcc4.5.2)
Библиотека кодирования : MPlayer

Видео
Идентификатор : 0
Формат : MPEG-4 Visual
Профиль формата : Advanced Simple@L5
Параметр BVOP формата : 2
Параметр QPel формата : Нет
Параметр GMC формата : Без точки перехода
Параметр матрицы формата : Default (H.263)
Идентификатор кодека : XVID
Идентификатор кодека/Подсказка : XviD
Продолжительность : 2 м. 39 с.
Битрейт : 1191 Кбит/сек
Ширина : 1072 пикселя
Высота : 600 пикселей
Соотношение сторон : 16:9
Соотношение сторон в оригинале : 16:9
Частота кадров : 25,000 кадров/сек
Цветовое пространство : YUV
Субдискретизация насыщенности : 4:2:0
Битовая глубина : 8 бит
Тип развёртки : Прогрессивная
Метод сжатия : С потерями
Бит/(Пиксели*Кадры) : 0.074
Размер потока : 22,6 Мбайт (89%)
Библиотека кодирования : XviD 1.2.1 (UTC 2008-12-04)

Аудио
Идентификатор : 1
Формат : MPEG Audio
Версия формата : Version 1
Профиль формата : Layer 3
Режим : Joint stereo
Идентификатор кодека : 55
Идентификатор кодека/Подсказка : MP3
Продолжительность : 2 м. 39 с.
Вид битрейта : Постоянный
Битрейт : 128 Кбит/сек
Каналы : 2 канала
Частота : 44,1 КГц
Метод сжатия : С потерями
Задержка видео : 40 мс.
Размер потока : 2,43 Мбайт (10%)
Выравнивание : Соединение по промежуткам
Продолжительность промежутка : 26 мс. (0,65 видеокадр)
Время предзагрузки промежутка : 522 мс.
Библиотека кодирования : LAME3.98.4





[url=http://Запрещенный хостинг/1/225705/] [/url] [url=http://Запрещенный хостинг/1/225706/] [/url]
Трекер:  [ 09-Дек-2014 10:00 ]

Размер .torrent файла 18 KB


Размер: 58 MB
Хэш (hash) релиза: 318c29ec927c4aa2939d430b3bd041a4a4b884ca
Подписка на обновления:

Еще никто не оставлял запись к записи скачать торрент Игорь и Вика. "Будни" . Будь первым!

!Обратная связь
//main.js show_panel