Статистика раздачи
Размер:  1.09 GB   |    Зарегистрирован:  2 года 3 месяца   |    .torrent скачан:  76 раз   |   

Пиры будут получены при скачивании

 

Скачать порно Carmen the Spanish Whore / La Zoccola Spangola / Sombreros et petites culottes / Carmens Erotiska Äventyr / Кармэн - испанская шлюха ) через торрент бесплатно :: UnionPron.org

 
 
Автор Сообщение

Sakura

avatar Sakura


Carmen the Spanish Whore | La Zoccola Spangola
Sombreros et petites culottes | Carmens Erotiska Äventyr | Кармэн - испанская шлюха

Год производства: 1995 г.
Страна: Италия | Italy
Жанр: Feature
Продолжительность: 01:37:09
Язык: Английский | English

Режиссер: Joe D'Amato
Студия: Capital Film / Ultimate Video (Adam&Eve)

В ролях:
Actresses
Kathy Kash (as Caterina Rinaldi) [Anal Facial DP]
Elizabeth King
Jessica Gabriel (as Jessika Langes)
Maria de Sanchez
Monica Orsini [Facial]
Nina Cherry (as Nina Anderson)
Ursula Moore [Facial]

Actors
Hakan (as Hakan Joel)
Eros Cristaldi (as Heros)
John Walton (as Jolt Gaber)
Mike Foster (as Mike De Vinci)
Olivier Sanchez
Steven St. Croix

Описание: Полицейский "под прикрытием" направляется в Испанию, чтобы расследовать экономические преступления. Но, когда на его пути попадаются прекрасные испанские синьоры и сеньориты, очень трудно отказать себе в небольшом отступлении от служебного долга.

Scene Breakdowns:
Scene 1. Elizabeth King, Hakan
Scene 2. Monica Orsini, Steven St. Croix
Scene 3. Monica Orsini, Mike Foster
Scene 4. Maria de Sanchez, Eros Cristaldi
Scene 5. Kathy Kash, Monica Orsini, Eros Cristaldi, Mike Foster
Scene 6. Kathy Kash, Jessica Gabriel, Monica Orsini, Ursula Moore, John Walton, Mike Foster
Scene 7. Maria de Sanchez, Hakan

Качество видео: VHSRip
Формат видео: AVI
Видео: 624x464, MPEG-4 Visual (XviD), 1471 kbps, 23.976 fps
Аудио: MPEG-1 Audio layer 3 (MP3), 128 kbps (CBR), 48 kHz, stereo, 1 stream

[url=...1225567]Carmen The Spanish Whore (672 MB) [rus][/url]
[url=...914746]Carmen The Spanish Whore (875 MB) [ita][/url]
General
Format/Info : Audio Video Interleave
File size : 1.09 GiB
Duration : 1h 37mn
Overall bit rate : 1 608 Kbps
Video
Format : MPEG-4 Visual
Format profile : Streaming Video@L1
Format settings, BVOP : Yes
Format settings, QPel : No
Format settings, GMC : No warppoints
Format settings, Matrix : Default (MPEG)
Codec ID : XVID
Codec ID/Hint : XviD
Duration : 1h 37mn
Bit rate : 1 471 Kbps
Width : 624 pixels
Height : 464 pixels
Display aspect ratio : 4/3
Frame rate : 23.976 fps
Resolution : 24 bits
Colorimetry : 4:2:0
Scan type : Progressive
Bits/(Pixel*Frame) : 0.212
Stream size : 1 022 MiB (91%)
Writing library : XviD 1.2.0.dev47 (UTC 2006-11-01)
Audio
Format : MPEG Audio
Format version : Version 1
Format profile : Layer 3
Codec ID : 55
Codec ID/Hint : MP3
Duration : 1h 37mn
Bit rate mode : Constant
Bit rate : 128 Kbps
Channel(s) : 2 channels
Sampling rate : 48.0 KHz
Resolution : 16 bits
Stream size : 88.9 MiB (8%)
Alignment : Aligned on interleaves
Interleave, duration : 42 ms (1.00 video frame)
Interleave, preload duration : 504 ms
Writing library : LAME3.97
Encoding settings : -m j -V 4 -q 2 -lowpass 17 -b 128
Трекер:  [ 04-Дек-2014 22:00 ]

Размер .torrent файла 11 KB


Размер: 1.09 GB
Хэш (hash) релиза: b0692c46499a2dee1a57522f5215361bb9d325ac
Подписка на обновления:

Еще никто не оставлял запись к записи скачать торрент Carmen the Spanish Whore La Zoccola Spangola . Будь первым!

!Обратная связь
//main.js show_panel