Статистика раздачи
Размер:  1.49 GB   |    Зарегистрирован:  2 года 6 месяцев   |    .torrent скачан:  94 раза   |   

Пиры будут получены при скачивании

 

Скачать порно Kelly auf dem Weg zum Filmstar / Kelly fickt Hollywood / De Val / Келли трахает Голливуд ) через торрент бесплатно :: UnionPron.org

 
 
Автор Сообщение

Sakura

avatar Sakura


Kelly auf dem Weg zum Filmstar / Kelly fickt Hollywood / De Val / Келли трахает Голливуд

[url=...1209582] [/url]
Год производства: 1999 г.
Страна: Германия | Germany
Жанр: Feature
Продолжительность: 01:37:28
Язык: Немецкий

Режиссер: No | Нет
Студия: Multi Media Verlag (MMV)

В ролях:
Actresses: [url=...1209582]Kelly Trump[/url], Mandy Mystery, Gina Rome, Tina Wussock
Actors: Freddy Dalton, Steve Holmes, Horst Kallinger, Zenza Raggi, Claudio (appears just in the opening trailer)

Описание: The genre movie “ Kelly fickt Hollywood” (Cart.No. 50107) was released
by MMV in 1999. DVD reissue in October 2000.

Scene breakdowns:
Scene 1 - Mandy Mystery [facial], Horst Kallinger
Scene 2 - [url=...1209582]Kelly Trump[/url], Freddy Dalton
Scene 3 - Mandy Mystery [anal], Steve Holmes, [with [url=...1209582]Kelly Trump[/url] tied up naked]
Scene 4 - Gina Rome, Zenza Raggi
Scene 5 - Tina Wussock, Steve Holmes
General
Format : MPEG-4
Format profile : Base Media / Version 2
Codec ID : mp42
File size : 1.49 GiB
Duration : 1h 37mn
Overall bit rate : 2 190 Kbps
Encoded date : UTC 2014-11-23 06:53:27
Tagged date : UTC 2014-11-23 07:09:53
Video #1
ID : 1
Format : AVC
Format/Info : Advanced Video Codec
Format profile : Main@L3.1
Format settings, CABAC : Yes
Format settings, ReFrames : 2 frames
Codec ID : avc1
Codec ID/Info : Advanced Video Coding
Duration : 1h 37mn
Bit rate mode : Variable
Bit rate : 1 995 Kbps
Maximum bit rate : 10.5 Mbps
Width : 768 pixels
Height : 576 pixels
Display aspect ratio : 4/3
Frame rate mode : Constant
Frame rate : 25.000 fps
Resolution : 24 bits
Colorimetry : 4:2:0
Scan type : Progressive
Bits/(Pixel*Frame) : 0.180
Stream size : 1.36 GiB (91%)
Encoded date : UTC 2014-11-23 06:53:27
Tagged date : UTC 2014-11-23 07:09:53
Audio #2
ID : 2
Format : AAC
Format/Info : Advanced Audio Codec
Format version : Version 4
Format profile : LC
Format settings, SBR : No
Codec ID : 40
Duration : 1h 37mn
Bit rate mode : Variable
Bit rate : 192 Kbps
Maximum bit rate : 234 Kbps
Channel(s) : 2 channels
Channel positions : L R
Sampling rate : 48.0 KHz
Resolution : 16 bits
Stream size : 134 MiB (9%)
Encoded date : UTC 2014-11-23 06:53:27
Tagged date : UTC 2014-11-23 07:09:53
Качество видео: DVDRip
Формат видео: MP4
Видео: AVC, 1995 kbps, 25 fps, 768x576
Аудио: AAC (AAC LC), 192 kbps (VBR), 48 kHz, stereo, 1 stream
Трекер:  [ 04-Дек-2014 18:30 ]

Размер .torrent файла 15 KB


Размер: 1.49 GB
Хэш (hash) релиза: 677b9a14a3235806cc0b9364ea2c4efac907db77
Подписка на обновления:

Еще никто не оставлял запись к записи скачать торрент Kelly auf dem Weg zum Filmstar Kelly fickt Hollywood . Будь первым!

!Обратная связь
//main.js show_panel