Статистика раздачи
Размер:  982 MB   |    Зарегистрирован:  2 года 1 месяц   |    .torrent скачан:  121 раз   |   

Пиры будут получены при скачивании

 

Скачать порно Sex Appel / Pentax Check In / Atraccion Sexual / Objectif Fatal - la chaine des plaisirs / Сексуальное влечение через торрент бесплатно :: UnionPron.org

 
 
Автор Сообщение

Sakura

avatar Sakura


Sex Appel | Pentax Check In | Atraccion Sexual
Objectif Fatal - la chaine des plaisirs | Сексуальное влечение


[url=...1098941] [/url][url=...1587915] [/url][url=...1209582] [/url]
Год производства: 1995 г.
Страна: France | Франция
Жанр: Feature
Продолжительность: 01:28:27 (01:07:00 сам фильм + БОНУС)
Язык: Итальянский | Italian

Режиссер: Nicky Ranieri
Студия: Mario Salieri Entertainment Group / N&A / Goldlight / Colmax

В ролях:
Actresses
[url=...1062635]Jenny Fields (as Cristina Dance)[/url]
[url=...1098941]Erika Bella[/url] [Anal Facial]
[url=...1587915]Joy Karin's[/url] [Anal Facial]
[url=...1209582]Kelly Trump[/url] [Anal Facial]
Penelope (as Sarah Fosterman) [Anal Facial]

Actors
Backey Jakic (as Backy Jakic)
Don Fernando
Valentino
NonSex Performers
Mauro Santaluca

Описание: Dear Soundly-Sleeping Beautiful Naked Woman. Please come and stay at our hotel. Our facilities are quite lovely: fragrant floral arrangements will coax you to sleep on feathery mattresses with luxurious bedding. The management can also assure you that you will not be sexually-exploited in your sleep, from which you are no doubt unable to be stirred.
You will not be fucked naked and photographed while you dream about being fucked naked and photographed. There is a 100% guarantee that you will not wake up in the morning, cum-covered and pleasantly aching from a raunchy fuck you can't remember from the night before. We guarantee it, and we look forward to your arrival.
Сам фильм длится 67 минут, остальное - это бонус!


Scene Breakdowns:
Scene 1. [url=...1098941]Erika Bella[/url], Backey Jakic, Don Fernando
Scene 2. [url=...1209582]Kelly Trump[/url], Don Fernando
Scene 3. [url=...1587915]Joy Karin's[/url], Backey Jakic
Scene 4. Penelope, Valentino
Scene 5. [url=...1062635]Jenny Fields[/url], Don Fernando
Bonus scene. Girl, girl and boy
General
Format : AVI
Format/Info : Audio Video Interleave
File size : 981 MiB
Duration : 1h 28mn
Overall bit rate : 1 550 Kbps
Writing application : Lavf51.12.1
Video
Format : xvid
Codec ID : xvid
Duration : 1h 28mn
Bit rate : 1 410 Kbps
Width : 480 pixels
Height : 320 pixels
Display aspect ratio : 1.500
Frame rate : 25.000 fps
Resolution : 24 bits
Bits/(Pixel*Frame) : 0.367
Stream size : 892 MiB (91%)
Audio
Format : MPEG Audio
Format version : Version 1
Format profile : Layer 3
Codec ID : 55
Codec ID/Hint : MP3
Duration : 1h 28mn
Bit rate mode : Constant
Bit rate : 128 Kbps
Channel(s) : 2 channels
Sampling rate : 44.1 KHz
Resolution : 16 bits
Stream size : 81.0 MiB (8%)
Alignment : Aligned on interleaves
Interleave, duration : 26 ms (0.65 video frame)
Writing library : LAME3.97
Качество видео: DVDRip
Формат видео: AVI
Видео: xvid, 1410 kbps, 480x320, 25 fps
Аудио: MP3, 128 kbps (CBR), 44.1 kHz, stereo, 1 stream
Трекер:  [ 01-Дек-2014 20:30 ]

Размер .torrent файла 20 KB


Размер: 982 MB
Хэш (hash) релиза: 8e52a748b26efae19f9115eff2d8abd2d9fb7387
Подписка на обновления:

Еще никто не оставлял запись к записи скачать торрент Sex Appel Pentax Check In . Будь первым!

!Обратная связь
//main.js show_panel