Статистика раздачи
Размер:  219 MB   |    Зарегистрирован:  2 года 9 месяцев   |    .torrent скачан:  45 раз   |   

Пиры будут получены при скачивании

 

Скачать порно Otome Hime через торрент бесплатно :: UnionPron.org

 
 
Автор Сообщение

Sakura

avatar Sakura


Otome Hime / オトメヒメ

Год производства: 2014 г.
Жанр: School, Blowjob, Anal sex, Big breasts
Серии: OVA 1
Продолжительность: 25:33
Цензура: Есть во всех файлах

Язык: Японский
Режиссер: Sawayama Shin`ichirou
Автор оригинала: Miyabi
Студия: PashminaA

Описание: Теплая ламповая история про парня Сатори-куна и девушку Мегуми-тян.
Сатори приходит к Мегуми делать уроки в ходе разговора хватает её за грудь и уже дальше все идет по на катаной схеме. И вот наша новая пара старается опробовать все виды секса.

Вся хентайка протикает под приятную спокойную музыку
Video
ID : 1
Format : AVC
Format/Info : Advanced Video Codec
Format profile : High@L3.2
Format settings, CABAC : Yes
Format settings, ReFrames : 5 frames
Codec ID : avc1
Codec ID/Info : Advanced Video Coding
Duration : 25mn 32s
Bit rate : 989 Kbps
Maximum bit rate : 3 837 Kbps
Width : 720 pixels
Height : 480 pixels
Display aspect ratio : 16:9
Original display aspect ratio : 16:9
Frame rate mode : Variable
Frame rate : 27.799 fps
Original frame rate : 29.970 fps
Minimum frame rate : 14.985 fps
Maximum frame rate : 119.880 fps
Standard : NTSC
Color space : YUV
Chroma subsampling : 4:2:0
Bit depth : 8 bits
Scan type : Progressive
Bits/(Pixel*Frame) : 0.103
Stream size : 181 MiB (84%)
Writing library : x264 core 123 r2184+681M 5d72658
Encoding settings : cabac=1 / ref=5 / deblock=1:-2:-2 / analyse=0x3:0x113 / me=umh / subme=7 / psy=1 / fade_compensate=0.00 / psy_rd=1.00:0.00 / mixed_ref=1 / me_range=32 / chroma_me=1 / trellis=1 / 8x8dct=1 / cqm=0 / deadzone=21,11 / fast_pskip=1 / chroma_qp_offset=-2 / threads=12 / sliced_threads=0 / nr=0 / decimate=1 / interlaced=0 / bluray_compat=0 / constrained_intra=0 / fgo=0 / bframes=3 / b_pyramid=2 / b_adapt=2 / b_bias=0 / direct=3 / weightb=1 / open_gop=0 / weightp=2 / keyint=250 / keyint_min=25 / scenecut=40 / intra_refresh=0 / rc_lookahead=40 / rc=crf / mbtree=1 / crf=17.0000 / qcomp=0.60 / qpmin=0 / qpmax=69 / qpstep=4 / ip_ratio=1.40 / aq=1:1.00
Encoded date : UTC 2014-11-29 06:48:21
Tagged date : UTC 2014-11-29 06:48:47

Audio
ID : 2
Format : AAC
Format/Info : Advanced Audio Codec
Format profile : LC
Codec ID : 40
Duration : 25mn 32s
Bit rate mode : Variable
Bit rate : 192 Kbps
Maximum bit rate : 212 Kbps
Channel(s) : 2 channels
Channel positions : Front: L R
Sampling rate : 48.0 KHz
Compression mode : Lossy
Stream size : 34.7 MiB (16%)
Encoded date : UTC 2014-11-29 06:48:33
Tagged date : UTC 2014-11-29 06:48:47
Трекер:  [ 30-Ноя-2014 11:30 ]

Размер .torrent файла 17 KB


Размер: 219 MB
Хэш (hash) релиза: 3d510ae610f5262a5f3c463ae1717ca0263d6d3e
Подписка на обновления:

Еще никто не оставлял запись к записи скачать торрент Otome Hime . Будь первым!

!Обратная связь
//main.js show_panel