Статистика раздачи
Размер:  1.04 GB   |    Зарегистрирован:  2 года 8 месяцев   |    .torrent скачан:  28 раз   |   

Пиры будут получены при скачивании

 

Скачать порно Morgan Sex Project 3 через торрент бесплатно :: UnionPron.org

 
 
Автор Сообщение

Sakura

avatar Sakura


Morgan Sex Project 3

Год производства: 2000 г.
Страна: USA
Жанр: BigBoobs, Blonde, BlowjobOnly, Brunette, Facial, Group, Latin, OneOnOne, Public, Swallow, ThreesomeFFM, ThreesomeFMM
Продолжительность: 01:39:00
Режиссер: Jonathan Morgan
Студия: Wicked Pictures

Описание:

Cast: Kiri, Lola, Rachel Moore, Ryan Conner, Jonathan Morgan, Lee Stone, Mickey G

Jonathan Morgan and the entire cast of The Morgan Sex Project 3. What started out as a relaxing, sun-soaked beach getaway, soon degenerated into a frenzy of writhing bodies and man-made sun cream. This footage remains as a historical reminder of the restorative properties of sand and sea. Get this tape, and you may just pull off a disappearing act yourself.

Качество видео: DVDRip
Формат видео: AVI
Видео: 640x480, FPS:29.9, 1 362 Kbs,
Аудио: AAC, 128 Kbps, 2 channels
General
Complete name : Morgan Sex Project 3.mp4
Format : MPEG-4
Format profile : Base Media
Codec ID : isom
File size : 1.04 GiB
Duration : 1h 39mn
Overall bit rate mode : Variable
Overall bit rate : 1 497 Kbps
Writing application : Lavf52.31.0

Video
ID : 1
Format : AVC
Format/Info : Advanced Video Codec
Format profile : High@L3.0
Format settings, CABAC : Yes
Format settings, ReFrames : 2 frames
Codec ID : avc1
Codec ID/Info : Advanced Video Coding
Duration : 1h 39mn
Duration_FirstFrame : -67ms
Bit rate : 1 362 Kbps
Width : 640 pixels
Height : 480 pixels
Display aspect ratio : 4:3
Frame rate mode : Variable
Frame rate : 29.970 fps
Minimum frame rate : 9.990 fps
Maximum frame rate : 29.970 fps
Color space : YUV
Chroma subsampling : 4:2:0
Bit depth : 8 bits
Scan type : Progressive
Bits/(Pixel*Frame) : 0.148
Stream size : 972 MiB (91%)

Audio
ID : 2
Format : AAC
Format/Info : Advanced Audio Codec
Format profile : LC
Codec ID : 40
Duration : 1h 39mn
Bit rate mode : Variable
Bit rate : 128 Kbps
Channel(s) : 2 channels
Channel positions : Front: L R
Sampling rate : 48.0 KHz
Compression mode : Lossy
Delay relative to video : -4s 4ms
Stream size : 91.2 MiB (9%)
Трекер:  [ 29-Ноя-2014 15:30 ]

Размер .torrent файла 11 KB


Размер: 1.04 GB
Хэш (hash) релиза: b98c45a4ddcac16cafd131dd85862d553d7115fe
Подписка на обновления:

Еще никто не оставлял запись к записи скачать торрент Morgan Sex Project 3 . Будь первым!

!Обратная связь
//main.js show_panel