Статистика раздачи
Размер:  1.02 GB   |    Зарегистрирован:  2 года 7 месяцев   |    .torrent скачан:  83 раза   |   

Пиры будут получены при скачивании

 

Скачать порно Antonio e Cleopatra / Anthony And Cleopatra / Kleopatra / Les Nuits d'amour d'Antoine & Cleopâtre / Антонио и Клеопатра через торрент бесплатно :: UnionPron.org

 
 
Автор Сообщение

Sakura

avatar Sakura


Antonio e Cleopatra | Anthony And Cleopatra | Kleopatra
Les Nuits d'amour d'Antoine & Cleopâtre | Антонио и Клеопатра


[url=...1088220] [/url]
Год производства: 1997 г.
Страна: Италия | Italy
Жанр: Feature
Продолжительность: 01:33:47
Язык: Английский | English

Режиссер: Joe D'Amato
Студия: Moonlight Entertainment

В ролях:
Actresses
Jessica Gabriel [LezOnly]
Krisztina [Facial]
Marzia Visconti [LezOnly]
Nicolette [Anal Facial]
[url=...1088220]Olivia del Rio[/url] [Anal Facial DP A2M]
Paula White [Facial]
Ursula Moore [LezOnly]

Actors
Francesco Malcom
Hakan
Mephisto
Roberto Malone

Описание: Оказавшись в Египте Цезарь попадает под чары таинственной Клеопатры. В отсутствии Цезаря нравы в Риме приходят в упадок. Цезарь и Клеопатра возвращаются вместе. Царица вовсю наслаждается развратной римской жизнью. "Вставляй в меня свой конец!" - приказывает она рабу. Она напивается дорогими винами и в упоении трахается в задницу. Когда Цезаря убивают, Клеопатра вынуждена оставить Рим и вернуться домой в Египет. Ее новый любовник, Марк Антоний, не в силах противиться повелительнице членов. Октавиан в Риме узнает о ее извращениях. Он посылает в Египет войска, которые должны положить конец беспутной жизни Клеопатры...

Scene Breakdowns:
Scene 1. Nicolette, Paula White, Hakan
Scene 2. girl, [url=...1088220]Olivia del Rio[/url], Ursula Moore
Scene 3. Jessica Gabriel, Krisztina, Marzia Visconti, Paula White
Scene 4. [url=...1088220]Olivia del Rio[/url], Francesco Malcom
Scene 5. Krisztina, Hakan
Scene 6. [url=...1088220]Olivia del Rio[/url], Hakan
Scene 7. [url=...1088220]Olivia del Rio[/url], Mephisto, Roberto Malone
Scene 8. [url=...1088220]Olivia del Rio[/url], Hakan

Качество видео: DVDRip
Формат видео: AVI
Видео кодек: XviD
Аудио кодек: MP3
Видео: MPEG-4 Visual, 1416 kbps, 25 fps, 512x384
Аудио: 128 kbps (CBR), 44.1 kHz, stereo, 1 stream
General
Format : AVI
Format/Info : Audio Video Interleave
File size : 1.02 GiB
Duration : 1h 33mn
Overall bit rate : 1 553 Kbps
Writing application : VirtualDubMod 1.5.4.1 (build 2178/release)
Writing library : VirtualDub build 32842/release
Video
Format : MPEG-4 Visual
Format profile : Streaming Video@L1
Format settings, BVOP : Yes
Format settings, QPel : No
Format settings, GMC : No warppoints
Format settings, Matrix : Custom
Codec ID : XVID
Codec ID/Hint : XviD
Duration : 1h 33mn
Bit rate : 1 416 Kbps
Width : 512 pixels
Height : 384 pixels
Display aspect ratio : 4/3
Frame rate : 25.000 fps
Resolution : 24 bits
Colorimetry : 4:2:0
Scan type : Progressive
Bits/(Pixel*Frame) : 0.288
Stream size : 950 MiB (91%)
Writing library : XviD 64
Audio
Format : MPEG Audio
Format version : Version 1
Format profile : Layer 3
Codec ID : 55
Codec ID/Hint : MP3
Duration : 1h 33mn
Bit rate mode : Constant
Bit rate : 128 Kbps
Channel(s) : 2 channels
Sampling rate : 44.1 KHz
Resolution : 16 bits
Stream size : 85.7 MiB (8%)
Alignment : Split accross interleaves
Interleave, duration : 40 ms (1.00 video frame)
Interleave, preload duration : 500 ms
[url=...691155]Anthony And Cleopatra (630 Mb)[/url]
[url=...1194695]Anthony And Cleopatra (871 Mb) [fr][/url]
[url=...1884010]Anthony And Cleopatra (1.39 Gb) [ger][/url]
Трекер:  [ 11-Ноя-2014 04:00 ]

Размер .torrent файла 11 KB


Размер: 1.02 GB
Хэш (hash) релиза: b1e1f4b4fecdc6171d6f3432dfb0cb93376ec6ce
Подписка на обновления:

Еще никто не оставлял запись к записи скачать торрент Antonio e Cleopatra Anthony And Cleopatra . Будь первым!

!Обратная связь
//main.js show_panel