Статистика раздачи
Размер:  1021 MB   |    Зарегистрирован:  2 года 4 месяца   |    .torrent скачан:  139 раз   |   

Пиры будут получены при скачивании

 

Скачать порно Rio Lust / Hardissimo / Lussuria / Похоть через торрент бесплатно :: UnionPron.org

 
 
Автор Сообщение

Sakura

avatar Sakura


Rio Lust | Hardissimo | Lussuria | Похоть

[url=...1287695] [/url][url=...1088220] [/url]
Год производства: 1999 г.
Страна: Italy | Италия
Жанр: Feature
Продолжительность: 01:25:17
Язык: Итальянский

Режиссер: Joe D'Amato
Студия: Eca film | Sin City

В ролях:
Actresses
[url=...1287695]Laura Angel (as Natasha Love)[/url] [Anal Facial]
[url=...1088220]Olivia del Rio[/url] [Anal Facial]
[url=...1801283]Regina Sipos[/url] [Anal Facial DP]
Bambi (as Susanna Hajek) [Anal Facial DP]

Actors
Andrew Youngman
Bruno SX
Mike Foster
Philippe Dean
Robert Rosenberg

Описание: Итальянский порно фильм с хорошими костюмированными съемками и подборкой сексуальных девочек.В фильме несколько сцен красивого жесткого траха с итальянскими мачо и молодыми девчонками,есть несколько сцен жесткого сношения в две дырки.

Scene Breakdowns:
Scene 1. Bambi, Mike Foster, Philippe Dean
Scene 2. [url=...1801283]Regina Sipos[/url], Bruno SX, guy
Scene 3. Bambi, Mike Foster
Scene 4. [url=...1088220]Olivia del Rio[/url], guy
Scene 5. [url=...1287695]Laura Angel[/url], Mike Foster
Scene 6. Bambi, guy
Scene 7. [url=...1287695]Laura Angel[/url], guy
General
Format : AVI
Format/Info : Audio Video Interleave
File size : 1 019 MiB
Duration : 1h 25mn
Overall bit rate : 1 670 Kbps
Writing application : VirtualDubMod 1.5.4.1 (build 2178/release)
Writing library : VirtualDub build 32842/release
Video
Format : MPEG-4 Visual
Format profile : Streaming Video@L1
Format settings, BVOP : Yes
Format settings, QPel : No
Format settings, GMC : No warppoints
Format settings, Matrix : Custom
Codec ID : XVID
Codec ID/Hint : XviD
Duration : 1h 25mn
Bit rate : 1 469 Kbps
Width : 544 pixels
Height : 416 pixels
Display aspect ratio : 4/3
Frame rate : 25.000 fps
Resolution : 24 bits
Colorimetry : 4:2:0
Scan type : Progressive
Bits/(Pixel*Frame) : 0.260
Stream size : 896 MiB (88%)
Writing library : XviD 64
Audio
Format : MPEG Audio
Format version : Version 1
Format profile : Layer 2
Codec ID : 50
Codec ID/Hint : MP1
Duration : 1h 25mn
Bit rate mode : Constant
Bit rate : 192 Kbps
Channel(s) : 2 channels
Sampling rate : 48.0 KHz
Resolution : 16 bits
Stream size : 117 MiB (11%)
Alignment : Aligned on interleaves
Interleave, duration : 40 ms (1.00 video frame)
Interleave, preload duration : 504 ms
Качество видео: DVDRip
Формат видео: AVI
Видео кодек: XviD
Аудио кодек: WMA
Видео: 544x416, MPEG-4 Visual, 1469 kbps, 25 fps
Аудио: MPEG Audio (MPEG1 Audio layer 2), 192 kbps (CBR), 48 kHz, stereo, 1 stream
[url=...1485433]Rio Lust (563 MB) [fr][/url]
Трекер:  [ 11-Ноя-2014 04:00 ]

Размер .torrent файла 20 KB


Размер: 1021 MB
Хэш (hash) релиза: d6652a27cc3130cc5a4b70d475e5f7515e02d5ac
Подписка на обновления:

Еще никто не оставлял запись к записи скачать торрент Rio Lust Hardissimo . Будь первым!

!Обратная связь
//main.js show_panel