Статистика раздачи
Размер:  1.12 GB   |    Зарегистрирован:  2 года 8 месяцев   |    .torrent скачан:  44 раза   |   

Пиры будут получены при скачивании

 

Скачать порно Delirio 2 - La Fine Del Sogno / Экстаз 2 - Конец Сна через торрент бесплатно :: UnionPron.org

 
 
Автор Сообщение

Sakura

avatar Sakura


Delirio 2 - La Fine Del Sogno | Экстаз 2 - Конец Сна
Год производства: 2004 г.
Страна: Italy | Италия
Жанр: Feature
Продолжительность: 01:35:24
Язык: Итальянский

Режиссер: Romeo Visconti
Студия: FM Video

В ролях:
Actresses
[url=...1002377]Alexa Weix[/url] [Facial]
Christel Starr [LezOnly Bald]
[url=...1139548]Cintia Silver[/url] [Anal Facial DP]
[url=...1130566]Cony Ferrara[/url] [LezOnly]
[url=...1251899]Jessica Fiorentino[/url] [Anal Facial IR]
[url=...1536769]La Venere Bianca[/url] [IR]
NonSex Performers
Unknown Female 231970

Actors
Black Jack
Franco Roccaforte
Lauro Giotto
Titus Steel

Описание: Finalmente la bellissima e sempre piu' conturbante Venere Bianca torna con un film davvero spettacolare, emozionante ad altissimo contenuto erotico.
Splendide e sexy ragazze vi faranno sognare, emozionare, arrapare...E dulcis in fundo il primo grande anale della Venere Bianca.
E allora non non ci resta che augurarvi buona visione.

Scene Breakdowns:
Scene 1. [url=...1002377]Alexa Weix[/url], Lauro Giotto
Scene 2. [url=...1251899]Jessica Fiorentino[/url], Franco Roccaforte
Scene 3. Christel Starr, [url=...1130566]Cony Ferrara[/url], [url=...1536769]La Venere Bianca[/url]
Scene 4. [url=...1139548]Cintia Silver[/url], Black Jack, Titus Steel
Scene 5. [url=...1536769]La Venere Bianca[/url], Franco Roccaforte
General
Format : MPEG-4
Format profile : Base Media / Version 2
Codec ID : mp42
File size : 1.12 GiB
Duration : 1h 35mn
Overall bit rate : 1 684 Kbps
Writing application : TMPGEnc Video Mastering Works 5 Version. 5.4.2.103
Video #2
ID : 2
Format : AVC
Format/Info : Advanced Video Codec
Format profile : High@L4.2
Format settings, CABAC : Yes
Format settings, ReFrames : 2 frames
Codec ID : avc1
Codec ID/Info : Advanced Video Coding
Duration : 1h 35mn
Bit rate mode : Variable
Bit rate : 1 588 Kbps
Width : 672 pixels
Height : 504 pixels
Display aspect ratio : 4/3
Frame rate mode : Constant
Frame rate : 25.000 fps
Resolution : 24 bits
Colorimetry : 4:2:0
Scan type : Progressive
Bits/(Pixel*Frame) : 0.187
Stream size : 1.06 GiB (94%)
Audio #1
ID : 1
Format : AAC
Format/Info : Advanced Audio Codec
Format version : Version 4
Format profile : LC
Format settings, SBR : No
Codec ID : 40
Duration : 1h 35mn
Bit rate mode : Variable
Bit rate : 93.4 Kbps
Maximum bit rate : 576 Kbps
Channel(s) : 2 channels
Channel positions : L R
Sampling rate : 48.0 KHz
Resolution : 16 bits
Stream size : 63.7 MiB (6%)
Качество видео: TVRip
Формат видео: MP4
Видео кодек: H.264/AVC
Аудио кодек: AAC
Видео: 672x504, 1588 kbps, 25 fps
Аудио: AAC LC, 93.4 kbps (VBR), 48 kHz, stereo, 1 stream
[url=...1904769]Delirio on DVD9[/url]
[url=...1025318]Delirio (899 MB)[/url]
[url=...1025578]Delirio 2 (900 MB)[/url]
Трекер:  [ 09-Ноя-2014 06:00 ]

Размер .torrent файла 12 KB


Размер: 1.12 GB
Хэш (hash) релиза: b00883526c0e2e1c324810cf27d142df81ed5651
Подписка на обновления:

Еще никто не оставлял запись к записи скачать торрент Delirio 2 - La Fine Del Sogno Экстаз 2 - Конец Сна . Будь первым!

!Обратная связь
//main.js show_panel