Статистика раздачи
Размер:  342 MB   |    Зарегистрирован:  2 года 4 месяца   |    .torrent скачан:  60 раз   |   

Пиры будут получены при скачивании

 

Скачать порно Die Töchter des Fischers / Las Hijas del Pescador / Ribareva kci / Sperma a Go-Go / Vissers dochter / Дочь рыбака ) через торрент бесплатно :: UnionPron.org

 
 
Автор Сообщение

Sakura

avatar Sakura


Die Töchter des Fischers / Las Hijas del Pescador
Ribareva kci / Sperma a Go-Go / Vissers dochter / Дочь рыбака

[url=...643990] [/url][url=...1333708] [/url][url=...1230369] [/url]
Год производства: 2002 г.
Страна: Germany | Германия
Жанр: Feature
Продолжительность: 01:18:56
Язык: Немецкий

Режиссер: Fernando H & Attila
Студия: Multi Media Verlag (MMV)

В ролях:
Actresses: [url=...1230369]Denise La Bouche[/url], [url=...1333708]Nicole Taylor[/url], [url=...643990]Karma Rosenberg[/url], Nancy [3] Anastasia [6], Sabine [2]
Actors: Steve Holmes, Amir Von Hinne, Jens Modena, Mick Blue (as Michael), Horst Stramka (aka Horst Baron)

Описание: The movie „Die Töchter des Fischers“ (Cat.No.50297) was released by MMV in 2002.
General
Format : MPEG-4
Format profile : Base Media
Codec ID : isom
File size : 340 MiB
Duration : 1h 18mn
Overall bit rate : 602 Kbps
Encoded date : UTC 1970-01-01 00:00:00
Tagged date : UTC 1970-01-01 00:00:00
Writing application : Lavf53.5.0
Video #1
ID : 1
Format : AVC
Format/Info : Advanced Video Codec
Format profile : High@L2.0
Format settings, CABAC : Yes
Format settings, ReFrames : 4 frames
Codec ID : avc1
Codec ID/Info : Advanced Video Coding
Duration : 1h 18mn
Bit rate mode : Variable
Bit rate : 512 Kbps
Width : 320 pixels
Height : 240 pixels
Display aspect ratio : 4/3
Frame rate mode : Constant
Frame rate : 25.000 fps
Resolution : 24 bits
Colorimetry : 4:2:0
Scan type : Progressive
Bits/(Pixel*Frame) : 0.267
Stream size : 289 MiB (85%)
Writing library : x264 core 119
Encoding settings : cabac=1 / ref=2 / deblock=1:0:0 / analyse=0x3:0x113 / me=hex / subme=6 / psy=1 / psy_rd=1.00:0.00 / mixed_ref=0 / me_range=16 / chroma_me=1 / trellis=0 / 8x8dct=1 / cqm=0 / deadzone=21,11 / fast_pskip=1 / chroma_qp_offset=-2 / threads=1 / sliced_threads=0 / nr=0 / decimate=1 / interlaced=0 / bluray_compat=0 / constrained_intra=0 / bframes=16 / b_pyramid=2 / b_adapt=0 / b_bias=0 / direct=2 / weightb=1 / open_gop=0 / weightp=2 / keyint=250 / keyint_min=25 / scenecut=40 / intra_refresh=0 / rc_lookahead=40 / rc=2pass / mbtree=1 / bitrate=512 / ratetol=1.0 / qcomp=0.50 / qpmin=10 / qpmax=51 / qpstep=4 / cplxblur=20.0 / qblur=0.5 / ip_ratio=1.41 / aq=1:1.00
Encoded date : UTC 1970-01-01 00:00:00
Tagged date : UTC 2013-01-01 08:10:56
Audio #2
ID : 2
Format : AAC
Format/Info : Advanced Audio Codec
Format version : Version 4
Format profile : LC
Format settings, SBR : No
Codec ID : 40
Duration : 1h 18mn
Bit rate mode : Variable
Bit rate : 56.0 Kbps
Maximum bit rate : 57.7 Kbps
Channel(s) : 2 channels
Channel positions : L R
Sampling rate : 24.0 KHz
Resolution : 16 bits
Stream size : 31.6 MiB (9%)
Encoded date : UTC 1970-01-01 00:00:00
Tagged date : UTC 2013-01-01 08:10:56
Качество видео: DVDRip
Формат видео: MP4
Видео кодек: H.264/AVC
Аудио кодек: AAC
Видео: 320x240, 512 kbps, 25 fps
Аудио: AAC LC, 56 kbps (VBR), 24 kHz, stereo, 1 stream
Трекер:  [ 09-Ноя-2014 06:00 ]

Размер .torrent файла 14 KB


Размер: 342 MB
Хэш (hash) релиза: 4b146e5d92312b67d23d0aa50e8800102ec7792f
Подписка на обновления:

Еще никто не оставлял запись к записи скачать торрент Die Töchter des Fischers Las Hijas del Pescador . Будь первым!

!Обратная связь
//main.js show_panel