Статистика раздачи
Размер:  1.5 GB   |    Зарегистрирован:  2 года 9 месяцев   |    .torrent скачан:  75 раз   |   

Пиры будут получены при скачивании

 

Скачать порно Karriere Girls / Карьеристки , Daniela Rauscher ) через торрент бесплатно :: UnionPron.org

 
 
Автор Сообщение

Sakura

avatar Sakura


Karriere Girls | Карьеристки
Год производства: 1995 г.
Страна: Германия | Germany
Жанр: Feature
Продолжительность: 01:38:00
Язык: Немецкий

Режиссер: Hans Billian
Студия: Tabu

В ролях:
Actresses: Monica Orsini as Monique Delon, Kathy Kash, Carole [2] also Tina [28], Daniela Rauscher
Actors: Andreas Teepunkt (as Oliver), Jean Pallett (as Jens), Hans Billian [non sex] cameo appearance, Jonatan (plays butler), Backey Jakic (as Tarzan), Claudio Meloni

Описание: Monique and Kathy have dreamt of a modelling job for a long time. Finally they got an address in Munich to start their career. When they arrive at the house an old man (Hans Billian) opens the door telling them to leave straight away. Without money in their pockets, and without a roof over their heads, they hit the road. But not for long as they are picked up by two well-dressed guys (Jean Pallett and Andreas Teepunkt) and our girls get intivited to stay at Jean´s house. The girls know how to please the landlord as well as all guests and even the stuff. Hot sex action is guaranteed when past-master Hans Billian paints the town red again.

The genre movie “Karriere Girls 1” was originally released by Tabu in 1995,
DVD reissue in their "Golden Classics" series as (Cat.No.60559) in 2008.

Scene breakdowns:
Scene 1 – Carole [2], Jonatan
Scene 2 – Monica Orsini, Kathy Kash [lez] bathroom
Scene 3 – Monica Orsini, Kathy Kash [lez] strip
Scene 4 – Monica Orsini, Kathy Kash, Carole [2], Andreas Teepunkt, Jean Pallett, Jonatan (f*ck orgy)
Scene 5 – Monica Orsini, Kathy Kash, Jean Pallett [handhob]
Scene 6 – Monica Orsini, Kathy Kash, Jonatan [teasing at the pool]
Scene 7 – Monica Orsini, Kathy Kash [strip indoors]
Scene 8 – Monica Orsini, Kathy Kash, Carole [2], Daniela Rauscher, Andreas Teepunkt, Jean Pallett, Jonatan, Backey Jakic, Claudio Meloni (f*ck orgy)
General
Format : MPEG-4
Format profile : Base Media / Version 2
Codec ID : mp42
File size : 1.50 GiB
Duration : 1h 38mn
Overall bit rate : 2 188 Kbps
Encoded date : UTC 2014-10-21 12:49:58
Tagged date : UTC 2014-10-21 13:16:19
Video #1
ID : 1
Format : AVC
Format/Info : Advanced Video Codec
Format profile : Main@L3.1
Format settings, CABAC : Yes
Format settings, ReFrames : 2 frames
Codec ID : avc1
Codec ID/Info : Advanced Video Coding
Duration : 1h 38mn
Bit rate mode : Variable
Bit rate : 1 992 Kbps
Maximum bit rate : 4 702 Kbps
Width : 768 pixels
Height : 576 pixels
Display aspect ratio : 4/3
Frame rate mode : Constant
Frame rate : 25.000 fps
Resolution : 24 bits
Colorimetry : 4:2:0
Scan type : Progressive
Bits/(Pixel*Frame) : 0.180
Stream size : 1.36 GiB (91%)
Encoded date : UTC 2014-10-21 12:49:58
Tagged date : UTC 2014-10-21 13:16:19
Audio #2
ID : 2
Format : AAC
Format/Info : Advanced Audio Codec
Format version : Version 4
Format profile : LC
Format settings, SBR : No
Codec ID : 40
Duration : 1h 38mn
Bit rate mode : Variable
Bit rate : 192 Kbps
Maximum bit rate : 246 Kbps
Channel(s) : 2 channels
Channel positions : L R
Sampling rate : 48.0 KHz
Resolution : 16 bits
Stream size : 135 MiB (9%)
Title : deu
Language : German
Encoded date : UTC 2014-10-21 12:49:58
Tagged date : UTC 2014-10-21 13:16:19
Качество видео: DVDRip
Формат видео: MP4
Видео кодек: H.264/AVC
Аудио кодек: AAC
Видео: 768x576, 1992 kbps, 25 fps
Аудио: AAC LC, 192 kbps (VBR), 48 kHz, stereo, 1 stream
Трекер:  [ 06-Ноя-2014 00:30 ]

Размер .torrent файла 15 KB


Размер: 1.5 GB
Хэш (hash) релиза: c8950487fa89c2282d8aca2a96a8bde4477bf871
Подписка на обновления:

Торренты, похожие на Karriere Girls Карьеристки скачать торрент

Форум Название Автор Размер S L Добавлен
Фильмы с сюжетом / Feature & Vignettes ·· Karriere Girls 2 / Карьеристки 2 (Hans Billian, Tabu) [1996 г., Feature, DVDRip] ( Lolita Slater , Carmen Herzog , Kathy Kash , Monica Orsini , Susanne (Philips) ) Sakura 17996811271.68 GB 0 0 1421010043

01:00

12-Янв-15

Еще никто не оставлял запись к записи скачать торрент Karriere Girls Карьеристки . Будь первым!

!Обратная связь
//main.js show_panel