Статистика раздачи
Размер:  251 MB   |    Зарегистрирован:  3 года   |    .torrent скачан:  289 раз   |   

Пиры будут получены при скачивании

 

Скачать порно Надя сосёт за пиво через торрент бесплатно :: UnionPron.org

 
 
Автор Сообщение

Sakura

avatar Sakura


Надя сосёт за пиво

Год производства: 2013 г.
Жанр: Oral Sex, Tits, Blowjob, Cum shots
Продолжительность: 00:01:36 + 00:01:19

Описание:
Девчушка Надя сосёт за пиво возле авто. Занятие не очень нравится - да ещё и свет с камерой)
Концовка просто убила)))
Смотрим - комментим.
Приятного просмотра!

Тип HD видео: 720p
Качество видео: CamRip
Формат видео: MP4
Видео кодек: H.264/AVC
Аудио кодек: AAC
Общее
Полное имя RRjoRRR00571.mp4
Формат : MPEG-4
Профиль формата : Base Media
Идентификатор кодека : isom
Размер файла : 137 Мбайт
Продолжительность : 1 м. 35 с.
Общий поток : 12,1 Мбит/сек
Программа кодирования : Lavf54.63.104

Видео
Идентификатор : 1
Формат : AVC
Формат/Информация : Advanced Video Codec
Профиль формата : Baseline@L3.1
Параметр CABAC формата : Нет
Параметр ReFrames формата : 1 кадр
Параметр GOP формата : M=1, N=30
Режим смешивания : Container profile=Baseline@3.0
Идентификатор кодека : avc1
Идентификатор кодека/Информация : Advanced Video Coding
Продолжительность : 1 м. 35 с.
Битрейт : 12,0 Мбит/сек
Ширина : 1280 пикселей
Высота : 720 пикселей
Соотношение сторон : 16:9
Режим частоты кадров : Переменный
Частота кадров : 29,970 кадров/сек
Минимальная частота кадров : 29,412 кадров/сек
Максимальная частота кадров : 30,303 кадров/сек
Цветовое пространство : YUV
Субдискретизация насыщенности : 4:2:0
Битовая глубина : 8 бит
Тип развёртки : Прогрессивная
Бит/(Пиксели*Кадры) : 0.434
Размер потока : 137 Мбайт (99%)

Аудио
Идентификатор : 2
Формат : AAC
Формат/Информация : Advanced Audio Codec
Профиль формата : LC
Идентификатор кодека : 40
Продолжительность : 1 м. 35 с.
Вид битрейта : Постоянный
Битрейт : 63,5 Кбит/сек
Каналы : 2 канала
Channel(s)_Original : 1 канал
Расположение каналов : Front: C
Частота : 48,0 КГц
Метод сжатия : С потерями
Размер потока : 741 Кбайт (1%)
Полное имя RRjoRRR00581.mp4
Формат : MPEG-4
Профиль формата : Base Media
Идентификатор кодека : isom
Размер файла : 114 Мбайт
Продолжительность : 1 м. 19 с.
Общий поток : 12,0 Мбит/сек
Программа кодирования : Lavf54.63.104

Видео
Идентификатор : 1
Формат : AVC
Формат/Информация : Advanced Video Codec
Профиль формата : Baseline@L3.1
Параметр CABAC формата : Нет
Параметр ReFrames формата : 1 кадр
Параметр GOP формата : M=1, N=30
Режим смешивания : Container profile=Baseline@3.0
Идентификатор кодека : avc1
Идентификатор кодека/Информация : Advanced Video Coding
Продолжительность : 1 м. 19 с.
Битрейт : 12,0 Мбит/сек
Ширина : 1280 пикселей
Высота : 720 пикселей
Соотношение сторон : 16:9
Режим частоты кадров : Переменный
Частота кадров : 29,970 кадров/сек
Минимальная частота кадров : 29,412 кадров/сек
Максимальная частота кадров : 30,303 кадров/сек
Цветовое пространство : YUV
Субдискретизация насыщенности : 4:2:0
Битовая глубина : 8 бит
Тип развёртки : Прогрессивная
Бит/(Пиксели*Кадры) : 0.434
Размер потока : 113 Мбайт (99%)

Аудио
Идентификатор : 2
Формат : AAC
Формат/Информация : Advanced Audio Codec
Профиль формата : LC
Идентификатор кодека : 40
Продолжительность : 1 м. 19 с.
Вид битрейта : Постоянный
Битрейт : 63,6 Кбит/сек
Каналы : 2 канала
Channel(s)_Original : 1 канал
Расположение каналов : Front: C
Частота : 48,0 КГц
Метод сжатия : С потерями
Размер потока : 617 Кбайт (1%)



[url=http://Запрещенный хостинг/95/214858/] [/url] [url=http://Запрещенный хостинг/95/214859/] [/url]
Трекер:  [ 31-Окт-2014 22:00 ]

Размер .torrent файла 20 KB


Размер: 251 MB
Хэш (hash) релиза: 05934679c3f0b4401e1e8fc16e0cad28584958fc
Подписка на обновления:

Еще никто не оставлял запись к записи скачать торрент Надя сосёт за пиво . Будь первым!

!Обратная связь
//main.js show_panel