Статистика раздачи
Размер:  1.32 GB   |    Зарегистрирован:  2 года 10 месяцев   |    .torrent скачан:  82 раза   |   

Пиры будут получены при скачивании

 

Скачать порно Torero / Тореадор ) через торрент бесплатно :: UnionPron.org

 
 
Автор Сообщение

Sakura

avatar Sakura


Torero | Тореадор


[url=...1088220] [/url][url=...1426930] [/url]
Год производства: 1996 г.
Страна: Италия | Italy
Жанр: Feature
Продолжительность: 01:50:51
Язык: Испанский

Режиссер: Joe D'Amato
Студия: Wildlife (rocxi)

В ролях:
Actresses
[url=...1299184]Maria Bellucci (as Maria Swallona)[/url] [Anal]
[url=...1088220]Olivia del Rio[/url] [Anal Facial A2M]
[url=...1801283]Regina Sipos[/url] [Anal]
Sandra [Facial CumSwap]
[url=...1426930]Sunset Thomas[/url] [Anal Facial DP]
[url=...1092834]Tanya Hansen[/url] [Anal Facial]
Katarina Martinez (as Zdena) [Anal Facial A2M]
NonSex Performers
Estrella Del Sol
Jessica Gabriel

Actors
Francesco Malcom
Hakan
Roberto Malone
Rocco Siffredi
Valentino
Zack Thomas

Описание: Залитая солнцем арена: Жаждущие крови зрители: Налитые яростью глаза обреченного быка: Неуловимое движение тореро, наносящего последний смертельный удар: Это - коррида! Но если тореодора играет Рокко Синфреди, не ждите, что он будет вести опасный поединок со стадом быков. Его арена - постель! Его соперники - коварные, страстные, сногсшибательные женщины! Его бандерилья всегда готова погрузиться в жаждущую плоть! Рокко - лучший трахальщик среди тореодоров и лучший тореодор среди трахальщиков!

Scene Breakdowns:
Scene 1. Sandra, Francesco Malcom
Scene 2. [url=...1092834]Tanya Hansen[/url], Roberto Malone
Scene 3. [url=...1088220]Olivia del Rio[/url], Rocco Siffredi
Scene 4. Sandra, [url=...1092834]Tanya Hansen[/url], Roberto Malone
Scene 5. [url=...1426930]Sunset Thomas[/url], Rocco Siffredi
Scene 6. [url=...1299184]Maria Bellucci[/url],[url=...1801283]Regina Sipos[/url], [url=...1092834]Sunset Thomas[/url], Rocco Siffredi
Scene 7. Katarina Martinez, Valentino
Scene 8. [url=...1426930]Sunset Thomas[/url], Rocco Siffredi
Scene 9. [url=...1426930]Sunset Thomas[/url], Hakan, Valentino
Scene 10. Sandra, [url=...1092834]Tanya Hansen[/url], Rocco Siffredi
Scene 11. [url=...1088220]Olivia del Rio[/url], Rocco Siffredi
General
Format : DivX
Format/Info : Hack of AVI
File size : 1.32 GiB
Duration : 1h 50mn
Overall bit rate : 1 702 Kbps
Video
Format : MPEG-4 Visual
Format settings, BVOP : Yes
Format settings, QPel : No
Format settings, GMC : No warppoints
Format settings, Matrix : Default (H.263)
Muxing mode : Packed bitstream
Codec ID : DX50
Codec ID/Hint : DivX 5
Duration : 1h 50mn
Bit rate : 1 500 Kbps
Width : 720 pixels
Height : 540 pixels
Display aspect ratio : 4/3
Frame rate : 25.000 fps
Resolution : 24 bits
Colorimetry : 4:2:0
Scan type : Progressive
Bits/(Pixel*Frame) : 0.154
Stream size : 1.16 GiB (88%)
Title : Video
Writing library : DivX 2682
Audio
Format : AC-3
Format/Info : Audio Coding 3
Codec ID : 2000
Duration : 1h 50mn
Bit rate mode : Constant
Bit rate : 192 Kbps
Channel(s) : 2 channels
Channel positions : L R
Sampling rate : 48.0 KHz
Resolution : 16 bits
Stream size : 152 MiB (11%)
Alignment : Split accross interleaves
Interleave, duration : 40 ms (1.00 video frame)
Interleave, preload duration : 500 ms
Title : Audio - en-US
Text
Format : DivX Subtitle
Codec ID : DXSB
Codec ID/Info : Subtitle in AVI from DivX networks
Width : 640 pixels
Height : 480 pixels
Resolution : 4 bits
Stream size : 61.0 Bytes (0%)
Title : Subtitle - en-US;02
Качество видео: VHSRip
Формат видео: AVI
Видео кодек: DivX
Аудио кодек: AC3
Видео: MPEG-4 Visual (DivX 5), 1500 kbps, 25 fps, 720x540
Аудио: 192 kbps (CBR), 48 kHz, stereo, 1 stream
[url=...558666]Torero (702 MB)[/url]
[url=...641722]Torero (875 MB)[/url]
[url=...1346576]Torero (1.25 GB) [rus][/url]
[url=...990853]Torero (1.3 GB)[/url]
Трекер:  [ 29-Окт-2014 05:30 ]

Размер .torrent файла 14 KB


Размер: 1.32 GB
Хэш (hash) релиза: ca053c2e1dd78ad9d5661ab26d9ef7e0970ec128
Подписка на обновления:

Еще никто не оставлял запись к записи скачать торрент Torero Тореадор . Будь первым!

!Обратная связь
//main.js show_panel