Статистика раздачи
Размер:  1.44 GB   |    Зарегистрирован:  2 года 10 месяцев   |    .torrent скачан:  116 раз   |   

Пиры будут получены при скачивании

 

Скачать порно Selvaggia / Notgeil und Wild / Raw and Naked / Texas / La belle denudee / Прекрасная дикарка ) через торрент бесплатно :: UnionPron.org

 
 
Автор Сообщение

Sakura

avatar Sakura


Selvaggia | Notgeil und Wild | Raw and Naked | Texas | La belle denudee | Прекрасная дикарка


[url=...1209582] [/url]
Год производства: 1997 г.
Страна: Италия | Italy
Жанр: Feature
Язык: Немецкий

Режиссер: Joe D'Amato
Студия: Rabbit Video (In-X-Cess Productions)
Продолжительность: 01:28:46

В ролях:
Actresses
Gina Rome
[url=...1209582]Kelly Trump[/url] [Anal]
[url=...1018191]Selen[/url]

Actors
Claudio (as Claudio Kleen)
Hakan (as Hakan Serbs)
Warren Scott

Описание: Интриги, убийства, запутанный сюжет, разочарования и разоблачения – вы думаете что это голливудский боевик? Тогда добавьте к этому ещё и секс, и смотрите, что получилось. Много орального секса и лесбийских игр. Насыщенные сцены и “элитные” порнографические звезды. Обязательно не пропустите!
Scene Breakdowns
:
Scene 1. [url=...1209582]Kelly Trump[/url], Warren Scott
Scene 2. [url=...1209582]Kelly Trump[/url], Claudio
Scene 3. Gina Rome, Hakan
Scene 4. [url=...1209582]Kelly Trump[/url], Selen
Scene 5. [url=...1018191]Selen[/url], Claudio
Scene 6. [url=...1018191]Selen[/url], Hakan
General
Format : MPEG-4
Format profile : Base Media / Version 2
Codec ID : mp42
File size : 1.44 GiB
Duration : 1h 28mn
Overall bit rate : 2 318 Kbps
Encoded date : UTC 2014-10-16 12:47:43
Tagged date : UTC 2014-10-16 13:08:40
Video #1
ID : 1
Format : AVC
Format/Info : Advanced Video Codec
Format profile : Main@L3.1
Format settings, CABAC : Yes
Format settings, ReFrames : 2 frames
Codec ID : avc1
Codec ID/Info : Advanced Video Coding
Duration : 1h 28mn
Bit rate mode : Variable
Bit rate : 1 994 Kbps
Maximum bit rate : 4 103 Kbps
Width : 768 pixels
Height : 576 pixels
Display aspect ratio : 4/3
Frame rate mode : Constant
Frame rate : 25.000 fps
Resolution : 24 bits
Colorimetry : 4:2:0
Scan type : Progressive
Bits/(Pixel*Frame) : 0.180
Stream size : 1.24 GiB (86%)
Encoded date : UTC 2014-10-16 12:47:43
Tagged date : UTC 2014-10-16 13:08:40
Audio #2
ID : 2
Format : AAC
Format/Info : Advanced Audio Codec
Format version : Version 4
Format profile : LC
Format settings, SBR : No
Codec ID : 40
Duration : 1h 28mn
Bit rate mode : Variable
Bit rate : 320 Kbps
Maximum bit rate : 342 Kbps
Channel(s) : 2 channels
Channel positions : L R
Sampling rate : 48.0 KHz
Resolution : 16 bits
Stream size : 203 MiB (14%)
Encoded date : UTC 2014-10-16 12:47:43
Tagged date : UTC 2014-10-16 13:08:40
Качество видео: VG quality rip
Формат видео: MP4
Видео кодек: H.264/AVC
Аудио кодек: AAC
Видео: 1994 kbps, 25 fps, 768x576
Аудио: 320 kbps (VBR), 48 kHz, stereo, 1 stream
[url=...683912]Selvaggia (1.15 GB)[/url]
[url=...909133]Selvaggia (660 MB)[/url]
Трекер:  [ 20-Окт-2014 00:30 ]

Размер .torrent файла 15 KB


Размер: 1.44 GB
Хэш (hash) релиза: ea43f8a96c45a28c7d6c3f111f7e8310acdc72e3
Подписка на обновления:

Еще никто не оставлял запись к записи скачать торрент Selvaggia Notgeil und Wild . Будь первым!

!Обратная связь
//main.js show_panel