Статистика раздачи
Размер:  1.34 GB   |    Зарегистрирован:  2 года 11 месяцев   |    .torrent скачан:  49 раз   |   

Пиры будут получены при скачивании

 

Скачать порно Mes femmes de rêves / Sexual Network - Geheimcode Superfrau / Женщины моей мечты через торрент бесплатно :: UnionPron.org

 
 
Автор Сообщение

Sakura

avatar Sakura


Mes femmes de rêves | Sexual Network - Geheimcode Superfrau | Женщины моей мечты

[url=...1209582] [/url]
Год производства: 1995 г.
Страна: Germany | Германия
Жанр: Feature
Продолжительность: 01:23:04
Язык: Немецкий

Режиссер: Ralf Scott
Студия: XY-Video | Blue mask vidéo

В ролях:
Actresses: Charly Spark (as Charly News), Penelope, Arla Boran (busty blonde), [url=...1209582]Kelly Trump[/url], Luana Mbuto, brunette babe
Actors: Backey Jakic (as Jacky Boston), Vitaly Mühlberger aka Vic De Mille (as Vitalis), Mike Silver (as Mic Dickzig), two gangsters – non sex

Описание: It begins with a wild romp in the great outdoors that ends with jizz covered tits. Next, a couple is getting frisky in the kitchen when another woman walks in and decides to join [Kelly Trump, Backey Jakic and russian Arla Boran]. Sex by the lake is satisfying and dirty! An interracial foursome by the pool results in a sticky facial after some hardcore anal and even a double penetration! And finally, having sex in a field is fun and feels great, especially that warm cumshots to the tits!

The movie „Sexual Network – Geheimcode Superfrau“ (Cat.No. XY-722) was released by XY-Video in 1996. VHS cassette shows visible tape deterioration once in a while. German dubbed. Shot on location in France.

Scene breakdowns:
Scene 1 – Charly Spark, Vic De Mille
Scene 2 - Arla Boran, [url=...1209582]Kelly Trump[/url], Backey Jakic
Scene 3 - Pénélope, Mike Silver
Scene 4 – Luana Mbuto [DP], Pénélope, Backey Jakic, Vic De Mille
Scene 5 – brunette, Mike Silver
:
General
Format : MPEG-4
Format profile : Base Media / Version 2
Codec ID : mp42
File size : 1.34 GiB
Duration : 1h 23mn
Overall bit rate : 2 306 Kbps
Encoded date : UTC 2014-10-05 19:40:38
Tagged date : UTC 2014-10-05 20:00:58
Video #1
ID : 1
Format : AVC
Format/Info : Advanced Video Codec
Format profile : Main@L3.1
Format settings, CABAC : Yes
Format settings, ReFrames : 2 frames
Codec ID : avc1
Codec ID/Info : Advanced Video Coding
Duration : 1h 23mn
Bit rate mode : Variable
Bit rate : 1 994 Kbps
Maximum bit rate : 6 536 Kbps
Width : 768 pixels
Height : 576 pixels
Display aspect ratio : 4/3
Frame rate mode : Constant
Frame rate : 25.000 fps
Resolution : 24 bits
Colorimetry : 4:2:0
Scan type : Progressive
Bits/(Pixel*Frame) : 0.180
Stream size : 1.16 GiB (86%)
Encoded date : UTC 2014-10-05 19:40:38
Tagged date : UTC 2014-10-05 20:00:58
Audio #2
ID : 2
Format : AAC
Format/Info : Advanced Audio Codec
Format version : Version 4
Format profile : LC
Format settings, SBR : No
Codec ID : 40
Duration : 1h 23mn
Bit rate mode : Variable
Bit rate : 309 Kbps
Maximum bit rate : 360 Kbps
Channel(s) : 2 channels
Channel positions : L R
Sampling rate : 48.0 KHz
Resolution : 16 bits
Stream size : 183 MiB (13%)
Encoded date : UTC 2014-10-05 19:40:38
Tagged date : UTC 2014-10-05 20:00:58
Качество видео: VHSRip
Формат видео: MP4
Видео кодек: H.264/AVC
Аудио кодек: AAC
Видео: 1994 kbps, 768x576, 25 fps
Аудио: AAC LC, 309 kbps (VBR), 48 kHz, stereo, 1 stream
[url=...1552290]Sexual Network (896 Mb)[/url]
Трекер:  [ 17-Окт-2014 13:30 ]

Размер .torrent файла 14 KB


Размер: 1.34 GB
Хэш (hash) релиза: 4f08407f0d3ba2f09c65bbe479a91e5d3fea0e8d
Подписка на обновления:

Еще никто не оставлял запись к записи скачать торрент Mes femmes de rêves Sexual Network - Geheimcode Superfrau . Будь первым!

!Обратная связь
//main.js show_panel