Статистика раздачи
Размер:  1.35 GB   |    Зарегистрирован:  2 года 3 месяца   |    .torrent скачан:  73 раза   |   

Пиры будут получены при скачивании

 

Скачать порно Love Pirates / Пираты любви через торрент бесплатно :: UnionPron.org

 
 
Автор Сообщение

Sakura

avatar Sakura


Love Pirates | Пираты любви

[url=...1209582] [/url]
Год производства: 1996 г.
Страна: Germany | Германия
Жанр: Feature
Продолжительность: 01:23:57
Язык: Немецкий

Режиссер: Chris Austin
Студия: XY-Video

В ролях:
Actresses: [url=...1209582]Kelly Trump[/url], Gabrielle, China-Li, Valleria, Tea
Actors: Roberto Malone, Zenza Raggi, Gerry Pike, Reinhard Ebert

Описание: The movie „Love Pirates“ (Cat.No. XY-736) was released by XY-Video in 1996.
General
Format : MPEG-4
Format profile : Base Media / Version 2
Codec ID : mp42
File size : 1.35 GiB
Duration : 1h 23mn
Overall bit rate : 2 307 Kbps
Encoded date : UTC 2014-10-07 14:38:11
Tagged date : UTC 2014-10-07 14:57:20
Video #1
ID : 1
Format : AVC
Format/Info : Advanced Video Codec
Format profile : Main@L3.1
Format settings, CABAC : Yes
Format settings, ReFrames : 2 frames
Codec ID : avc1
Codec ID/Info : Advanced Video Coding
Duration : 1h 23mn
Bit rate mode : Variable
Bit rate : 1 993 Kbps
Maximum bit rate : 5 022 Kbps
Width : 768 pixels
Height : 576 pixels
Display aspect ratio : 4/3
Frame rate mode : Constant
Frame rate : 25.000 fps
Resolution : 24 bits
Colorimetry : 4:2:0
Scan type : Progressive
Bits/(Pixel*Frame) : 0.180
Stream size : 1.17 GiB (86%)
Encoded date : UTC 2014-10-07 14:38:11
Tagged date : UTC 2014-10-07 14:57:20
Audio #2
ID : 2
Format : AAC
Format/Info : Advanced Audio Codec
Format version : Version 4
Format profile : LC
Format settings, SBR : No
Codec ID : 40
Duration : 1h 23mn
Bit rate mode : Variable
Bit rate : 311 Kbps
Maximum bit rate : 330 Kbps
Channel(s) : 2 channels
Channel positions : L R
Sampling rate : 48.0 KHz
Resolution : 16 bits
Stream size : 187 MiB (13%)
Encoded date : UTC 2014-10-07 14:38:11
Tagged date : UTC 2014-10-07 14:57:20
Качество видео: VHSRip
Формат видео: MP4
Видео кодек: H.264/AVC
Аудио кодек: AAC
Видео: 768х576, 1993 kbps, 25 fps
Аудио: AAC LC, 311 kbps (VBR), 48 kHz, stereo, 1 stream
Трекер:  [ 17-Окт-2014 13:30 ]

Размер .torrent файла 14 KB


Размер: 1.35 GB
Хэш (hash) релиза: 44bae0f1ff0cebbf8025a94dbdca042dc5c39d78
Подписка на обновления:

Еще никто не оставлял запись к записи скачать торрент Love Pirates Пираты любви . Будь первым!

!Обратная связь
//main.js show_panel