Статистика раздачи
Размер:  1.69 GB   |    Зарегистрирован:  2 года 2 месяца   |    .torrent скачан:  129 раз   |   

Пиры будут получены при скачивании

 

Скачать порно Saloon Kiss / Le Bambole del Fuhrer / Le Troie del III Reich / The Joy Club / Fuhrer’s Dolls / Le Ragazze Del Fuhrer / Trappola perversa / Девочки Фюрера ) через торрент бесплатно :: UnionPron.org

 
 
Автор Сообщение

Sakura

avatar Sakura


Saloon Kiss | Le Bambole del Fuhrer | Le Troie del III Reich | Trappola perversa | Operation Sex
Le Ragazze Del Fuhrer | The Joy Club | Fuhrer’s Dolls | Девочки Фюрера


[url=...1098941] [/url]
Год производства: 1995 г.
Страна: Italy | Италия
Жанр: Feature
Продолжительность: 01:40:44
Язык: Русский

Режиссер: Joe D'Amato
Студия: Capital Film (Xcel)

В ролях:
Actresses
Clarissa Bruni [Anal Facial DP A2M]
Cristina Valenti [Anal Facial]
[url=...1098941]Erika Bella[/url] [Anal Facial DP]
Luisita Duarte [Anal Facial]
Dina Pearl (as Marina Perla) [Anal Facial]
Shalimar (as Shalima) [Facial]
Suzy Cat (as Susanna Cantona) [Facial]

Actors
Alberto Rey (as Alberto Sanchez)
Andrea Nobili
Francesco Malcom
Jean-Yves Le Castel (as Joe Calzone)
Philippe Soine
Silvio Evangelista (as Silvia Sampera)

Описание: Фильм о похождениях в эпоху Второй Мировой войны!

Scene Breakdowns:
Scene 1. Clarissa Bruni, Jean-Yves Le Castel
Scene 2. [url=...1098941]Erika Bella[/url], Alberto Rey, Philippe Soine
Scene 3. Luisita Duarte, Jean-Yves Le Castel
Scene 4. Cristina Valenti, Jean-Yves Le Castel
Scene 5. Clarissa Bruni, Andrea Nobili, Jean-Yves Le Castel, Silvio Evangelista
Scene 6. Clarissa Bruni, Cristina Valenti, Dina Pearl, Shalimar, Suzy Cat, Andrea Nobili, Francesco Malcom, Jean-Yves Le Castel, Silvio Evangelista

Качество видео: VHSRip
Формат видео: MKV
Аудио кодек: AC3
Видео: 2200 kbps, 25 fps, 720x560
Аудио: 192 (CBR), 48 kHz, stereo, 1 stream

[url=...1025562]Le Bambole del Fuhrer (705 MB)[/url]
[url=...376825]Le Bambole del Fuhrer (577 MB) [rus][/url]
[url=...1084619]Le Bambole del Fuhrer (81 MB) [rus][/url]
General
Format : Matroska
File size : 1.69 GiB
Duration : 1h 40mn
Overall bit rate : 2 399 Kbps
Writing application : HandBrake 0.9.5
Writing library : libmkv 0.6.4.1
Video #1
ID : 1
Format : AVC
Format/Info : Advanced Video Codec
Format profile : High@L3.0
Format settings, CABAC : Yes
Format settings, ReFrames : 4 frames
Muxing mode : Container profile=Unknown@3.0
Codec ID : V_MPEG4/ISO/AVC
Duration : 1h 40mn
Bit rate : 2 159 Kbps
Nominal bit rate : 2 200 Kbps
Width : 720 pixels
Height : 560 pixels
Display aspect ratio : 1.286
Frame rate : 25.000 fps
Resolution : 24 bits
Colorimetry : 4:2:0
Scan type : Progressive
Bits/(Pixel*Frame) : 0.214
Stream size : 1.52 GiB (90%)
Writing library : x264 core 112
Encoding settings : cabac=1 / ref=3 / deblock=1:0:0 / analyse=0x3:0x113 / me=hex / subme=7 / psy=1 / psy_rd=1.00:0.00 / mixed_ref=1 / me_range=16 / chroma_me=1 / trellis=1 / 8x8dct=1 / cqm=0 / deadzone=21,11 / fast_pskip=1 / chroma_qp_offset=-2 / threads=6 / sliced_threads=0 / nr=0 / decimate=1 / interlaced=0 / constrained_intra=0 / bframes=3 / b_pyramid=2 / b_adapt=1 / b_bias=0 / direct=1 / weightb=1 / open_gop=0 / weightp=2 / keyint=250 / keyint_min=25 / scenecut=40 / intra_refresh=0 / rc_lookahead=40 / rc=abr / mbtree=1 / bitrate=2200 / ratetol=1.0 / qcomp=0.60 / qpmin=3 / qpmax=51 / qpstep=4 / ip_ratio=1.40 / aq=1:1.00
Audio #2
ID : 2
Format : AC-3
Format/Info : Audio Coding 3
Codec ID : A_AC3
Duration : 1h 40mn
Bit rate mode : Constant
Bit rate : 192 Kbps
Channel(s) : 2 channels
Channel positions : L R
Sampling rate : 48.0 KHz
Stream size : 138 MiB (8%)
Language : Russian
Трекер:  [ 16-Окт-2014 23:30 ]

Размер .torrent файла 17 KB


Размер: 1.69 GB
Хэш (hash) релиза: 250d1074dfc3be4be9bedce477fec73e4d198693
Подписка на обновления:

Еще никто не оставлял запись к записи скачать торрент Saloon Kiss Le Bambole del Fuhrer . Будь первым!

!Обратная связь
//main.js show_panel