Статистика раздачи
Размер:  2 GB   |    Зарегистрирован:  2 года 8 месяцев   |    .torrent скачан:  197 раз   |   

Пиры будут получены при скачивании

 

Скачать порно Калигула и Мессалина / Caligula et Messaline / Caligula and Messaline MVO + AVO + Original Eng через торрент бесплатно :: UnionPron.org

 
 
Автор Сообщение

Sakura

avatar Sakura


Калигула и Мессалина
Caligula et Messaline / Caligula and Messaline
Страна: Италия, Франция
Жанр: Softcore, Erotic, Drama, History
Год выпуска: 1981
Продолжительность: 01:48:12

Перевод 1: Профессиональный (многоголосый закадровый) СВ Дубль
Перевод 2: Авторский (одноголосый закадровый) В. Штейн
Cубтитры: нет
Оригинальная аудиодорожка: английский

Режиссер: J.-J. Renon, B. Mattei

В ролях: Владимир Брайович, Бетти Роланд, Франсуаза Бланчард, Рауль Кабрера, Джино Турини

Описание: Рим, ужасный и славный своими оргиями. Император Калигула отправляет в изгнание своих сестер Агриппину и Друсиллу за то, что они хотели его свергнуть (хотя и наслаждался прелестями обеих). Мессалина по совету своей подружки-лесбиянки выходит на арену под видом гладиатора, чтобы соблазнить тирана, и становится его фавориткой. Дальше идут глупые дворцовые интриги. Калигулу все-таки убивают, но основная тема фильма - аэробика в постели и других местах, поданная под непритязательным юмором (Иванов М.)



Качество видео: DVDRip
Формат видео: AVI
Видео: Xvid 720x320 25fps 2 105 Kbps 0.365bpp
Аудио #1: Dolby AC3 48000Hz stereo 192kbps [Stream 01] MVO
Аудио #2: Dolby AC3 48000Hz stereo 192kbps [Stream 02] AVO
Аудио #3: Dolby AC3 48000Hz stereo 192kbps [Stream 03] Original Eng
General
Name : Kaligula.i.Messalina.1981.DVDRip.avi
Format : AVI
Format/Info : Audio Video Interleave
Format profile : OpenDML
File size : 2.05 GiB
Duration : 1h 48mn
Overall bit rate : 2 706 Kbps
Writing application : VirtualDubMod 1.5.10.2 (build 2540/release)
Writing library : VirtualDubMod build 2540/release

Video
ID : 0
Format : MPEG-4 Visual
Format profile : Simple@L3
Format settings, BVOP : No
Format settings, QPel : No
Format settings, GMC : No warppoints
Format settings, Matrix : Default (H.263)
Codec ID : XVID
Codec ID/Hint : XviD
Duration : 1h 48mn
Bit rate : 2 105 Kbps
Width : 720 pixels
Height : 320 pixels
Display aspect ratio : 2.25:1
Frame rate : 25.000 fps
Color space : YUV
Chroma subsampling : 4:2:0
Bit depth : 8 bits
Scan type : Progressive
Compression mode : Lossy
Bits/(Pixel*Frame) : 0.365
Stream size : 1.59 GiB (78%)
Writing library : XviD 1.1.2 (UTC 2006-11-01)

Audio #1
ID : 1
Format : AC-3
Format/Info : Audio Coding 3
Mode extension : CM (complete main)
Format settings, Endianness : Big
Codec ID : 2000
Duration : 1h 48mn
Bit rate mode : Constant
Bit rate : 192 Kbps
Channel(s) : 2 channels
Channel positions : Front: L R
Sampling rate : 48.0 KHz
Bit depth : 16 bits
Compression mode : Lossy
Stream size : 149 MiB (7%)
Alignment : Split accross interleaves
Interleave, duration : 40 ms (1.00 video frame)
Interleave, preload duration : 500 ms

Audio #2
ID : 2
Format : AC-3
Format/Info : Audio Coding 3
Mode extension : CM (complete main)
Format settings, Endianness : Big
Codec ID : 2000
Duration : 1h 48mn
Bit rate mode : Constant
Bit rate : 192 Kbps
Channel(s) : 2 channels
Channel positions : Front: L R
Sampling rate : 44.1 KHz
Bit depth : 16 bits
Compression mode : Lossy
Stream size : 149 MiB (7%)
Alignment : Split accross interleaves
Interleave, duration : 40 ms (1.00 video frame)
Interleave, preload duration : 500 ms

Audio #3
ID : 3
Format : AC-3
Format/Info : Audio Coding 3
Mode extension : CM (complete main)
Format settings, Endianness : Big
Codec ID : 2000
Duration : 1h 48mn
Bit rate mode : Constant
Bit rate : 192 Kbps
Channel(s) : 2 channels
Channel positions : Front: L R
Sampling rate : 48.0 KHz
Bit depth : 16 bits
Compression mode : Lossy
Stream size : 149 MiB (7%)
Alignment : Split accross interleaves
Interleave, duration : 40 ms (1.00 video frame)
Interleave, preload duration : 500 ms
Трекер:  [ 15-Окт-2014 17:00 ]

Размер .torrent файла 21 KB


Размер: 2 GB
Хэш (hash) релиза: ebc15b193cd106987fbff860dfd86da1e9be26fe
Подписка на обновления:

Еще никто не оставлял запись к записи скачать торрент Калигула и Мессалина Caligula et Messaline . Будь первым!

!Обратная связь
//main.js show_panel