Статистика раздачи
Размер:  1.34 GB   |    Зарегистрирован:  2 года 5 месяцев   |    .torrent скачан:  54 раза   |   

Пиры будут получены при скачивании

 

Скачать порно Enjoy The Night / Наслаждение ночью через торрент бесплатно :: UnionPron.org

 
 
Автор Сообщение

Sakura

avatar Sakura


Enjoy The Night | Наслаждение ночью
Год производства: 1996 г.
Страна: Германия | Germany
Жанр: Feature
Продолжительность: 01:23:18
Язык: Немецкий

Режиссер: Ralf Scott | Christoph Clark
Студия: XY-Video

В ролях:
Actresses: Olga Pechova (as Olga Bonali), Eva Braun, Silvie Rotänü, a.o.
Actors: Christoph Clark, Silvio, Jolt Walton

Описание: The movie “Enjoy The Night” (Cat.No. XY-703) was released by XY-Video in 1996 German dubbed.

Scene Breakdowns:
Scene 1 – Olga Pechova, Silvie Rotänü [lez]
Scene 2 - brunette, Christoph Clark
Scene 3 - Silvie Rotänü [DP],brunette, Silvio, Jolt Walton
Scene 4 - Olga Pechova, Christoph Clark
Scene 5- Olga Pechova, Eva Braun,Silvie Rotänü, Jolt Walton

scene 3 + 4 are intercut
General
Format : MPEG-4
Format profile : Base Media / Version 2
Codec ID : mp42
File size : 1.34 GiB
Duration : 1h 23mn
Overall bit rate : 2 306 Kbps
Encoded date : UTC 2014-10-05 18:23:12
Tagged date : UTC 2014-10-05 18:42:24
Video #1
ID : 1
Format : AVC
Format/Info : Advanced Video Codec
Format profile : Main@L3.1
Format settings, CABAC : Yes
Format settings, ReFrames : 2 frames
Codec ID : avc1
Codec ID/Info : Advanced Video Coding
Duration : 1h 23mn
Bit rate mode : Variable
Bit rate : 1 993 Kbps
Maximum bit rate : 4 779 Kbps
Width : 768 pixels
Height : 576 pixels
Display aspect ratio : 1.289
Original display aspect ratio : 1.290
Frame rate mode : Constant
Frame rate : 25.000 fps
Resolution : 24 bits
Colorimetry : 4:2:0
Scan type : Progressive
Bits/(Pixel*Frame) : 0.180
Stream size : 1.16 GiB (86%)
Encoded date : UTC 2014-10-05 18:23:12
Tagged date : UTC 2014-10-05 18:42:24
Audio #2
ID : 2
Format : AAC
Format/Info : Advanced Audio Codec
Format version : Version 4
Format profile : LC
Format settings, SBR : No
Codec ID : 40
Duration : 1h 23mn
Bit rate mode : Variable
Bit rate : 309 Kbps
Maximum bit rate : 329 Kbps
Channel(s) : 2 channels
Channel positions : L R
Sampling rate : 48.0 KHz
Resolution : 16 bits
Stream size : 184 MiB (13%)
Encoded date : UTC 2014-10-05 18:23:12
Tagged date : UTC 2014-10-05 18:42:24
Качество видео: VHSRip
Формат видео: MP4
Видео кодек: H.264/AVC
Аудио кодек: AAC
Видео: 1993 kbps, 768x576, 25 fps
Аудио: AAC LC, 309 kbps (VBR), 48 kHz, stereo, 1 stream
Трекер:  [ 13-Окт-2014 20:00 ]

Размер .torrent файла 14 KB


Размер: 1.34 GB
Хэш (hash) релиза: 3c671ff3cd7dcebdc94e28025b684611427e6a40
Подписка на обновления:

Еще никто не оставлял запись к записи скачать торрент Enjoy The Night Наслаждение ночью . Будь первым!

!Обратная связь
//main.js show_panel