Статистика раздачи
Размер:  1.37 GB   |    Зарегистрирован:  2 года 5 месяцев   |    .torrent скачан:  55 раз   |   

Пиры будут получены при скачивании

 

Скачать порно Perversion Pur – Wet Water Worlds / Мокрые извращения через торрент бесплатно :: UnionPron.org

 
 
Автор Сообщение

Sakura

avatar Sakura


Perversion Pur – Wet Water Worlds | Мокрые извращения
Год производства: 1995 г.
Страна: Germany | Германия
Жанр: Feature
Продолжительность: 01:25:18
Язык: Немецкий

Режиссер: No | Нет
Студия: Sculpture

В ролях:
Actresses: Cindy Carrera, Olga Pechova, Dina Pearl, Kathi Burg (aka Tina Ray), a.o.
Actors: Franco Roccaforte, Rene Bar, a.o.

Описание: The movie “Cindy Carrera: Perversion Pur – Wet Water Worlds” (Cat.No. 1109) was released by Sculpture Video in 1995. Please note that the first 4 minutes of the movie suffer from heavy dropouts. Direct German sound.

Scene Breakdowns:
Scene 1 - Cindy Carrera, Franco Roccaforte
Scene 2 - Cindy Carrera, Olga Pechova, Dina Pearl, blackhaired Hungarian beauty [lez]
Scene 3 - Cindy Carrera, Rene Bar
Scene 4 - Cindy Carrera, Kathi Burg, a.o.[f*ckorgy]

Качество видео: VHSRip
Формат видео: MP4
Видео кодек: AVC
Аудио кодек: AAC
Видео: 768x576, 1994 kbps, 25 fps
Аудио: AAC LC, 305 kbps (VBR), 48 kHz, stereo, 1 stream
General
Format : MPEG-4
Format profile : Base Media / Version 2
Codec ID : mp42
File size : 1.37 GiB
Duration : 1h 25mn
Overall bit rate : 2 303 Kbps
Encoded date : UTC 2014-10-11 10:12:12
Tagged date : UTC 2014-10-11 10:32:56
Video #1
ID : 1
Format : AVC
Format/Info : Advanced Video Codec
Format profile : Main@L3.1
Format settings, CABAC : Yes
Format settings, ReFrames : 2 frames
Codec ID : avc1
Codec ID/Info : Advanced Video Coding
Duration : 1h 25mn
Bit rate mode : Variable
Bit rate : 1 994 Kbps
Maximum bit rate : 4 877 Kbps
Width : 768 pixels
Height : 576 pixels
Display aspect ratio : 4/3
Frame rate mode : Constant
Frame rate : 25.000 fps
Resolution : 24 bits
Colorimetry : 4:2:0
Scan type : Progressive
Bits/(Pixel*Frame) : 0.180
Stream size : 1.19 GiB (87%)
Encoded date : UTC 2014-10-11 10:12:12
Tagged date : UTC 2014-10-11 10:32:56
Audio #2
ID : 2
Format : AAC
Format/Info : Advanced Audio Codec
Format version : Version 4
Format profile : LC
Format settings, SBR : No
Codec ID : 40
Duration : 1h 25mn
Bit rate mode : Variable
Bit rate : 305 Kbps
Maximum bit rate : 350 Kbps
Channel(s) : 2 channels
Channel positions : L R
Sampling rate : 48.0 KHz
Resolution : 16 bits
Stream size : 186 MiB (13%)
Encoded date : UTC 2014-10-11 10:12:12
Tagged date : UTC 2014-10-11 10:32:56
Трекер:  [ 13-Окт-2014 01:00 ]

Размер .torrent файла 14 KB


Размер: 1.37 GB
Хэш (hash) релиза: 7090175cacd4e54ce190b58763289d7a48a846fc
Подписка на обновления:

Еще никто не оставлял запись к записи скачать торрент Perversion Pur – Wet Water Worlds Мокрые извращения . Будь первым!

!Обратная связь
//main.js show_panel