Статистика раздачи
Размер:  1.34 GB   |    Зарегистрирован:  2 года 10 месяцев   |    .torrent скачан:  40 раз   |   

Пиры будут получены при скачивании

 

Скачать порно Power Inside / Страсть внутри , Luna Afri , Arla Russ , Daniela Rauscher ) через торрент бесплатно :: UnionPron.org

 
 
Автор Сообщение

Sakura

avatar Sakura


Power Inside | Страсть внутри
Год производства: 1995 г.
Страна: Germany | Германия
Жанр: Feature
Продолжительность: 01:23:09
Язык: Немецкий

Режиссер: Ian Nichols
Студия: XY Video

В ролях:
Actresses: Kelly Trump, Charly Spark (as Charly Di), Luna Afri(ka) [ebony], Arla Russ(land) [the busty blonde], Daniela Rauscher
Actors: Backey Jakic, Bruno SX, Alain L'Yle, Mephisto, Fred Kloss, Henri Soumi

Описание: The movie “Power Inside” (Cat.No.XY-455).
Scene breakdowns
:
Scene 1 - Charly Spark, Kelly Trump, Backey Jakic
Scene 2 - Luna Afri, Bruno SX, guy
Scene 3 - Arla Russ(land), Alan L´yle
Scene 4 - Daniela Rauscher, Bruno SX, Mephisto
General
Format : MPEG-4
Format profile : Base Media / Version 2
Codec ID : mp42
File size : 1.34 GiB
Duration : 1h 23mn
Overall bit rate : 2 304 Kbps
Encoded date : UTC 2014-10-05 14:03:06
Tagged date : UTC 2014-10-05 14:22:15
Video #1
ID : 1
Format : AVC
Format/Info : Advanced Video Codec
Format profile : Main@L3.1
Format settings, CABAC : Yes
Format settings, ReFrames : 2 frames
Codec ID : avc1
Codec ID/Info : Advanced Video Coding
Duration : 1h 23mn
Bit rate mode : Variable
Bit rate : 1 993 Kbps
Maximum bit rate : 5 106 Kbps
Width : 768 pixels
Height : 576 pixels
Display aspect ratio : 4/3
Frame rate mode : Constant
Frame rate : 25.000 fps
Resolution : 24 bits
Colorimetry : 4:2:0
Scan type : Progressive
Bits/(Pixel*Frame) : 0.180
Stream size : 1.16 GiB (86%)
Encoded date : UTC 2014-10-05 14:03:06
Tagged date : UTC 2014-10-05 14:22:15
Audio #2
ID : 2
Format : AAC
Format/Info : Advanced Audio Codec
Format version : Version 4
Format profile : LC
Format settings, SBR : No
Codec ID : 40
Duration : 1h 23mn
Bit rate mode : Variable
Bit rate : 308 Kbps
Maximum bit rate : 338 Kbps
Channel(s) : 2 channels
Channel positions : L R
Sampling rate : 48.0 KHz
Resolution : 16 bits
Stream size : 183 MiB (13%)
Encoded date : UTC 2014-10-05 14:03:06
Tagged date : UTC 2014-10-05 14:22:15
Качество видео: VHSRip
Формат видео: MP4
Видео кодек: H.264/AVC
Аудио кодек: AAC
Видео: 768x576, 1993 kbps, 25 fps
Аудио: AAC LC, 308 kbps (VBR), 48 kHz, stereo, 1 stream
Трекер:  [ 08-Окт-2014 00:30 ]

Размер .torrent файла 14 KB


Размер: 1.34 GB
Хэш (hash) релиза: df3fa237a5fdd4c7d75b2a023753e02b7347607c
Подписка на обновления:

Еще никто не оставлял запись к записи скачать торрент Power Inside Страсть внутри . Будь первым!

!Обратная связь
//main.js show_panel