Статистика раздачи
Размер:  837 MB   |    Зарегистрирован:  2 года 3 месяца   |    .torrent скачан:  81 раз   |   

Пиры будут получены при скачивании

 

Скачать порно Lulu's Nights / Debauche De Belle / Le Stagioni Di Bel / Senza regole / Le Notti Di Bel / Ночи Лулу через торрент бесплатно :: UnionPron.org

 
 
Автор Сообщение

Sakura

avatar Sakura


Lulu's Nights / Debauche De Belle / Le Stagioni Di Bel / Senza regole / Le Notti Di Bel / Ночи Лулу

[url=...1088220] [/url][url=...1426930] [/url]
Год производства: 1996 г.
Страна: Italy | Италия
Жанр: Feature, straight, anal, group
Продолжительность: 01:29:53
Язык: Испанский

Режиссер: Joe D'Amato | Luca Damiano
Студия: Golden Hawk | Wildlife | rocxi

В ролях:
Actresses
Jessica Gabriel
Macarena De La Vega
[url=...1299184]Maria Bellucci[/url] [Facial]
[url=...1088220]Olivia del Rio[/url] [Anal Facial]
[url=...1801283]Regina Sipos[/url]
Sandra
[url=...1426930]Sunset Thomas[/url] [Anal Facial DP]
[url=...1092834]Tanya Hansen[/url] [Anal Facial]
Tatiana Vankova
Unknown Female 42035-A
Unknown Female 42035-D

Actors
Alain L'Yle
David Perry
Francesco Malcom
Hakan
Valentino
Zack Thomas
NonSex Performers
Unknown Male 42035-A
Unknown Male 42035-B

Описание: Девица, заставшая своего бойфренда с любовницей, пускается во все тяжкие в поисках себя.

Scene Breakdowns:
Scene 1. [url=...1299184]Maria Bellucci[/url], Valentino
Scene 2. [url=...1299184]Maria Bellucci[/url], [url=...1801283]Regina Sipos[/url], [url=...1092834]Tanya Hansen[/url], Francesco Malcom, Hakan
Scene 3. [url=...1426930]Sunset Thomas[/url], Francesco Malcom
Scene 4. [url=...1426930]Sunset Thomas[/url], Valentino
Scene 5. [url=...1426930]Sunset Thomas[/url], Unknown Female 42035-A, David Perry, Valentino
Scene 6. [url=...1426930]Sunset Thomas[/url], Tatiana Vankova
Scene 7. Jessica Gabriel, [url=...1088220]Olivia del Rio[/url], Sandra, Tatiana Vankova, Unknown Female 42035-D, Alain L'Yle, David Perry, Francesco Malcom, guy
Scene 8. [url=...1426930]Sunset Thomas[/url], Valentino
General
Format : AVI
Format/Info : Audio Video Interleave
File size : 837 MiB
Duration : 1h 29mn
Overall bit rate : 1 302 Kbps
Writing application : Lavf51.12.1
Video
Format : xvid
Codec ID : xvid
Duration : 1h 29mn
Bit rate : 1 225 Kbps
Width : 480 pixels
Height : 320 pixels
Display aspect ratio : 1.500
Frame rate : 25.000 fps
Resolution : 24 bits
Bits/(Pixel*Frame) : 0.319
Stream size : 788 MiB (94%)
Audio
Format : MPEG Audio
Format version : Version 1
Format profile : Layer 3
Codec ID : 55
Codec ID/Hint : MP3
Duration : 1h 29mn
Bit rate mode : Constant
Bit rate : 64.0 Kbps
Channel(s) : 2 channels
Sampling rate : 44.1 KHz
Resolution : 16 bits
Stream size : 41.1 MiB (5%)
Alignment : Aligned on interleaves
Interleave, duration : 26 ms (0.65 video frame)
Interleave, preload duration : 26 ms
Качество видео: TVRip
Формат видео: AVI
Видео кодек: XviD
Аудио кодек: MP3
Видео: 480х320, 1225 kbps, 25 fps
Аудио: 64 kbps (CBR), 44.1 kHz, stereo, 1 stream
[url=...1271119]Lulu's Nights (700 Mb) [ita][/url]
Трекер:  [ 07-Окт-2014 01:00 ]

Размер .torrent файла 17 KB


Размер: 837 MB
Хэш (hash) релиза: 1636ef93c76cf540437f2eac386dccba4ab18d26
Подписка на обновления:

Еще никто не оставлял запись к записи скачать торрент Lulu's Nights Debauche De Belle . Будь первым!

!Обратная связь
//main.js show_panel