Статистика раздачи
Размер:  14 MB   |    Зарегистрирован:  2 года 10 месяцев   |    .torrent скачан:  373 раза   |   

Пиры будут получены при скачивании

 

Скачать порно Танечка из Солнечногорска через торрент бесплатно :: UnionPron.org

 
 
Автор Сообщение

Sakura

avatar Sakura


Танечка из Солнечногорска

Год производства: 2013 г.
Жанр: All sex, Creampie, Homemade
Продолжительность: 00:04:23

Описание: Парень трахает по-собачьи Танечку из Солнечногорска и кончает в нее.
Девочка реальная, когда-то имел счастье быть знакомым с ее бывшим супругом
Complete name : Сисястая блондиночка.mp4
Format : MPEG-4
Format profile : Base Media
Codec ID : isom
File size : 13.5 MiB
Duration : 4mn 23s
Overall bit rate mode : Variable
Overall bit rate : 431 Kbps
Encoded date : UTC 1970-01-01 00:00:00
Tagged date : UTC 1970-01-01 00:00:00
Writing application : Lavf52.40.0

Video
ID : 1
Format : AVC
Format/Info : Advanced Video Codec
Format profile : Baseline@L3.0
Format settings, CABAC : No
Format settings, ReFrames : 1 frame
Codec ID : avc1
Codec ID/Info : Advanced Video Coding
Duration : 4mn 23s
Bit rate : 290 Kbps
Width : 512 pixels
Height : 288 pixels
Display aspect ratio : 16:9
Frame rate mode : Constant
Frame rate : 25.000 fps
Color space : YUV
Chroma subsampling : 4:2:0
Bit depth : 8 bits
Scan type : Progressive
Bits/(Pixel*Frame) : 0.079
Stream size : 9.39 MiB (69%)
Writing library : x264 core 79
Encoding settings : cabac=0 / ref=1 / deblock=1:0:0 / analyse=0x1:0x131 / me=tesa / subme=9 / psy=1 / psy_rd=1.0:0.0 / mixed_ref=0 / me_range=24 / chroma_me=1 / trellis=0 / 8x8dct=0 / cqm=0 / deadzone=21,11 / chroma_qp_offset=-2 / threads=24 / nr=0 / decimate=1 / mbaff=0 / constrained_intra=0 / bframes=0 / wpredp=0 / keyint=250 / keyint_min=25 / scenecut=40 / rc_lookahead=40 / rc=cbr / mbtree=1 / bitrate=290 / ratetol=13.8 / qcomp=0.60 / qpmin=10 / qpmax=51 / qpstep=4 / vbv_maxrate=10000 / vbv_bufsize=10000 / ip_ratio=1.41 / aq=1:1.00
Language : English
Encoded date : UTC 1970-01-01 00:00:00
Tagged date : UTC 1970-01-01 00:00:00

Audio
ID : 2
Format : AAC
Format/Info : Advanced Audio Codec
Format profile : LC
Codec ID : 40
Duration : 4mn 23s
Bit rate mode : Variable
Bit rate : 128 Kbps
Channel(s) : 2 channels
Channel positions : Front: L R
Sampling rate : 44.1 KHz
Compression mode : Lossy
Stream size : 4.02 MiB (30%)
Language : English
Encoded date : UTC 1970-01-01 00:00:00
Tagged date : UTC 1970-01-01 00:00:00

Качество видео: CamRip
Формат видео: MP4
Видео кодек: XviD
Аудио кодек: AAC
Трекер:  [ 27-Сен-2014 15:30 ]

Размер .torrent файла 17 KB


Размер: 14 MB
Хэш (hash) релиза: 3da2f1224faa508c6e3cb90132bac57659fcb237
Подписка на обновления:

Еще никто не оставлял запись к записи скачать торрент Танечка из Солнечногорска . Будь первым!

!Обратная связь
//main.js show_panel