Статистика раздачи
Размер:  1.83 GB   |    Зарегистрирован:  2 года 10 месяцев   |    .torrent скачан:  75 раз   |   

Пиры будут получены при скачивании

 

Скачать порно Don Juan | Don Giovanni - Il Seduttore | La Contessa Svergognata | La ronde du plaisir / Дон Жуан ) через торрент бесплатно :: UnionPron.org

 
 
Автор Сообщение

Sakura

avatar Sakura


Don Juan | Don Giovanni - Il Seduttore | La Contessa Svergognata | La ronde du plaisir | Дон Жуан


[url=...1553110] [/url][url=...1088220] [/url]
Год производства: 1998 г.
Страна: Италия | Italy
Жанр: Feature
Продолжительность: 01:16:13
Язык: Французский | French

Режиссер: Luca Damiano
Студия: RD Communications (In-X-Cess Productions)

В ролях:
Actresses
Cyndy
Deborah Valentine (as Gabriella) [Anal]
Shanon Stone (as Ivett) [Anal]
[url=...1553110]Judith Kostner (as Judith)[/url] [Anal Facial Bald]
Katalyn Hoffner [Facial DP]
Magdi
Michela [Anal Facial]
Nikki Anderson (as Nikky Anderson) [Anal Facial DP Bald]
[url=...1088220]Olivia del Rio[/url] [Facial]
Rebecca Ramada (as Rebecca) [Anal Facial]
Reka Gabor (as Reka) [Anal Bald]
Rumika Powers
Sheila Stanton

Actors
Bob Terminator
Chris Mountain
Csoky
John Walton
Zenza Raggi (as Karim)
Mike Foster
Philippe Dean
Robert Rosenberg
NonSex Performers
Chris Charming
Luca Damiano

Описание: Вы слыхали о сексуальных приключениях героя-любовника Дон Жуана? Конечно слыхали. А теперь ознакомьтесь с тем, как признанный мастер Лука Дамиано воплотил легендарные похождения дон Жуана в жизнь с такими восхитительными прон-звездами, как Никки Андерсен и Оливией Дель Рио.
Возвращаясь от своей любовницы, Дон Жуан остановился в парке возле необычной статуи. Все сексуальные фантазии, которые роились у него в голове, поучили такое реальное воплощение, что показалось любвеобильному Дону, наверное, с головой у него не все в порядке. А Вы бы что подумали, если вдруг сама статуя захотела бы заняться с Вами сексом?! Какой Командор, - статуя-то женская!!!

Scene Breakdowns:
Scene 1. Shanon Stone, Reka Gabor, Philippe Dean
Scene 2. Cyndy, girl, Magdi, [url=...1088220]Olivia del Rio[/url], Rumika Powers, Sheila Stanton, 3 guys, Chris Mountain, Csoky, Philippe Dean
Scene 3. Nikki Anderson, Zenza Raggi, Philippe Dean
Scene 4. Katalyn Hoffner, Michela, Rebecca Ramada, Bob Terminator, Mike Foster, Philippe Dean, Robert Rosenberg
Scene 5. [url=...1088220]Olivia del Rio[/url], Philippe Dean

Качество видео: VHSRip
Формат видео: WMV
Видео: VC-1 (WMV3), 640x480, 30 fps, 3268 kbps
Аудио: WMA2, 146 kbps(VBR), 1 stream, stereo, 48 kHz

[url=...1644897]Don Juan (1.29 GB) [rus][/url]
[url=...1373992]Don Juan (830 MB)[rus][/url]
[url=...1016989]Don Juan (677 MB)[/url]
[url=...441613]Don Juan (452 MB)[/url]
General
Format : Windows Media
File size : 1.83 GiB
Duration : 1h 16mn
Overall bit rate mode : Variable
Overall bit rate : 3 432 Kbps
Maximum Overall bit rate : 5 506 Kbps
Encoded date : UTC 2010-01-11 19:42:36.800
Writing application : 6.0.6000.16386 / Windows Movie Maker
Application : Windows Movie Maker 6.0.6000.16386
Video #2
ID : 2
Format : VC-1
Format profile : MP@ML
Codec ID : WMV3
Codec ID/Info : Windows Media Video 9
Codec ID/Hint : WMV3
Duration : 1h 16mn
Bit rate mode : Variable
Bit rate : 3 268 Kbps
Width : 640 pixels
Height : 480 pixels
Display aspect ratio : 4/3
Frame rate : 30.000 fps
Resolution : 24 bits
Scan type : Progressive
Bits/(Pixel*Frame) : 0.355
Stream size : 1.74 GiB (95%)
Language : en-us
Audio #1
ID : 1
Format : WMA2
Format profile : L2
Codec ID : 161
Codec ID/Info : Windows Media Audio 2
Description of the codec : Windows Media Audio 9.2 - VBR Quality 90, 48 kHz, stereo 1-pass VBR
Duration : 1h 16mn
Bit rate mode : Variable
Bit rate : 146 Kbps
Channel(s) : 2 channels
Sampling rate : 48.0 KHz
Resolution : 16 bits
Stream size : 79.4 MiB (4%)
Language : en-us
Трекер:  [ 27-Сен-2014 01:30 ]

Размер .torrent файла 19 KB


Размер: 1.83 GB
Хэш (hash) релиза: 317188e69569c649362dd646e2450fbca03697d1
Подписка на обновления:

Еще никто не оставлял запись к записи скачать торрент Don Juan | Don Giovanni - Il Seduttore | La Contessa Svergognata | La ronde du plaisir Дон Жуан . Будь первым!

!Обратная связь
//main.js show_panel