Статистика раздачи
Размер:  655 MB   |    Зарегистрирован:  3 года 2 месяца   |    .torrent скачан:  130 раз   |   

Пиры будут получены при скачивании

 

Скачать порно Das Superweib! | In der Hölle der Lust | De Superslet | Супершлюшка ) через торрент бесплатно :: UnionPron.org

 
 
Автор Сообщение

Sakura

avatar Sakura


Das Superweib! | In der Hölle der Lust | De Superslet | Супершлюшка

Год производства: 2002 г.
Страна: Germany | Германия
Жанр: Feature
Продолжительность: 01:31:10
Язык: Немецкий

Режиссер: Backey Jakic
Студия: Multi Media Vertlag (MMV)

В ролях: Laura Angel, Karma, Denise la Bouche, Mandy Mistery, Jessica, Julia Crow, Nicole Taylor, Backey Jakic, Horst Baron, Steve Holmes, Franco Roccaforte, Edita Krasna, Hanna Golova, Jana Hercigova, Svetlana Zecka

Описание: Редкий фильм с участием целого обоза знаменитостей европейской порноиндустрии. Начальных и конечных титров нет. Возможно даже фильм не полный. На картинке присутствует "клеймо" сайта-источника!

Качество видео: SiteRip
Формат видео: AVI
Видео кодек: XviD
Аудио кодек: MP3
Видео: MPEG-4 Visual, 862 kbps, 25 fps, 640x480
Аудио: 128 kbps (CBR), 44,1 kHz, stereo, 1 stream
General
Format : AVI
Format/Info : Audio Video Interleave
File size : 653 MiB
Duration : 1h 31mn
Overall bit rate : 1 002 Kbps
Writing application : MEncoder SVN-r33883(20110719-gcc4.5.2)
Writing library : MPlayer
Video
Format : MPEG-4 Visual
Format profile : Streaming Video@L1
Format settings, BVOP : Yes
Format settings, QPel : No
Format settings, GMC : 3 warppoints
Format settings, Matrix : Default (H.263)
Codec ID : XVID
Codec ID/Hint : XviD
Duration : 1h 31mn
Bit rate : 862 Kbps
Width : 640 pixels
Height : 480 pixels
Display aspect ratio : 4/3
Frame rate : 25.000 fps
Resolution : 24 bits
Colorimetry : 4:2:0
Scan type : Progressive
Bits/(Pixel*Frame) : 0.112
Stream size : 562 MiB (86%)
Writing library : XviD 1.2.1 (UTC 2008-12-04)
Audio
Format : MPEG Audio
Format version : Version 1
Format profile : Layer 3
Codec ID : 55
Codec ID/Hint : MP3
Duration : 1h 31mn
Bit rate mode : Constant
Bit rate : 128 Kbps
Channel(s) : 2 channels
Sampling rate : 44.1 KHz
Resolution : 16 bits
Video delay : 40ms
Stream size : 83.5 MiB (13%)
Alignment : Aligned on interleaves
Interleave, duration : 26 ms (0.65 video frame)
Interleave, preload duration : 522 ms
Writing library : LAME3.98.4
Трекер:  [ 17-Сен-2014 23:30 ]

Размер .torrent файла 13 KB


Размер: 655 MB
Хэш (hash) релиза: e24d85d634b5e660178290b567713be8d7bdf356
Подписка на обновления:

Еще никто не оставлял запись к записи скачать торрент Das Superweib! | In der Hölle der Lust | De Superslet | Супершлюшка . Будь первым!

!Обратная связь
//main.js show_panel