Статистика раздачи
Размер:  833 MB   |    Зарегистрирован:  2 года 9 месяцев   |    .torrent скачан:  80 раз   |   

Пиры будут получены при скачивании

 

Скачать порно Gierige Engel | Donne gatto - Ladre di sesso | Cat Girls | Алчные ангелы через торрент бесплатно :: UnionPron.org

 
 
Автор Сообщение

Sakura

avatar Sakura


Gierige Engel | Donne gatto - Ladre di sesso | Cat Girls | Алчные ангелы

Год производства: 1999 г.
Страна: Германия Germany || Франция France || Италия Italy
Жанр: Feature
Продолжительность: 02:06:24
Язык: Итальянский | Italian

Режиссер: Patrick Deauville
Студия: FM Video

В ролях:
Actresses
La Venere Bianca [Facial]
Laura Angel (as Lenka) [Anal Facial Creampie]
Olivia De Treville (as Olivia) [Anal Facial]
Paula Wild (as Paula Meller) [Facial]
Rebecca Ramada [Anal Facial]
Unknown Female 209379-A [Anal Facial]
NonSex Performers
Unknown Female 209379-B

Actors
Andrea Monti
Andrea Nobili
Clark
Jay Lassiter (as Horst)
Robert Rosenberg
Valentino
Zenza Raggi
NonSex Performers
Unknown Male 209379

Описание: Monte CarIo, Treffpunkt der Schönen und der Reichen, ist der Ort, an dem unsere Geschichte spieIt. Bianca, Lea und OIivia sind nicht nur hübsch anzusehen, sondern haben es faustdick hinter den Ohren. Das Trio pIant einen gigantischen JuweIen-Raub und aIIes läuft auf Hochtouren. ln der Sekunde, aIs Hotel-Direktor Viktor seinen Saft genüsslich mit geschIossenen Augen tief in das weit offene ArschIoch von Olivia spritzt, entwendet die Kleine ihm den Tresor-Schlüssel. Gleichzeitig vögelt die voIIbusige Bianca einen Hotelpagen um den Verstand um an wichtige Informationen zu geIangen. Danach wird der Emir von Bagdad, der in BegIeitung seiner schwanzgeilen Haremsdame reist, fIachgeIegt. Der russische Milliardär Karim ist den Verführungskünsten der knackärschigen Lea hoffnungslos erlegen und aIs im Anschluss an eine pompöse Gartenparty der grosse Coup aufzufliegen droht, müssen unsere Heldinnen ihre schwersten Geschütze auffahren. Prickelnd, spannend, geil!

Монте-Карло, место встречи красот и империй, - именно тут и происходит это захватывающее действие. Три героини не только потрясающе красивые женщины, но и ужасно хитрые мошенницы, которые пускают в ход все свое оружие для достижения цели.

Scene Breakdowns:
Scene 1. Olivia De Treville, Andrea Nobili
Scene 2. La Venere Bianca, Clark
Scene 3. Paula Wild, Valentino
Scene 4. La Venere Bianca, Jay Lassiter
Scene 5. Laura Angel, Zenza Raggi
Scene 6. Rebecca Ramada, Unknown Female 209379-A, Jay Lassiter
Scene 7. La Venere Bianca, Laura Angel, Andrea Monti, Robert Rosenberg
Scene 8. La Venere Bianca, Laura Angel, Olivia De Treville
General
Format : AVI
Format/Info : Audio Video Interleave
File size : 831 MiB
Duration : 2h 6mn
Overall bit rate : 919 Kbps
Writing library : Boilsoft Joiner build 2411/release
Video
Format : MPEG-4 Visual
Format profile : Streaming Video@L1
Format settings, BVOP : Yes
Format settings, QPel : No
Format settings, GMC : No warppoints
Format settings, Matrix : Custom
Codec ID : XVID
Codec ID/Hint : XviD
Duration : 2h 6mn
Bit rate : 718 Kbps
Width : 384 pixels
Height : 288 pixels
Display aspect ratio : 4/3
Frame rate : 25.000 fps
Resolution : 24 bits
Colorimetry : 4:2:0
Scan type : Progressive
Bits/(Pixel*Frame) : 0.260
Stream size : 649 MiB (78%)
Writing library : XviD 1.1.0 (UTC 2005-11-22)
Audio
Format : AC-3
Format/Info : Audio Coding 3
Codec ID : 2000
Duration : 2h 6mn
Bit rate mode : Constant
Bit rate : 192 Kbps
Channel(s) : 2 channels
Channel positions : L R
Sampling rate : 48.0 KHz
Video delay : 8ms
Stream size : 174 MiB (21%)
Alignment : Split accross interleaves
Interleave, duration : 40 ms (1.00 video frame)
Interleave, preload duration : 500 ms
Качество видео: DVDRip
Формат видео: AVI
Видео кодек: XviD
Аудио кодек: AC3
Видео: MPEG-4 Visual (XviD), 718 kbps, 25 fps, 384x288
Аудио: 192 kbps (CBR), 48 kHz, stereo, 1 stream
[url=...996948]Gierige Engel (1.37 GB) [ger][/url]
Трекер:  [ 09-Сен-2014 23:30 ]

Размер .torrent файла 17 KB


Размер: 833 MB
Хэш (hash) релиза: 4a23f7f876814175be49eed69eea9fc43c6dcece
Подписка на обновления:

Еще никто не оставлял запись к записи скачать торрент Gierige Engel | Donne gatto - Ladre di sesso | Cat Girls | Алчные ангелы . Будь первым!

!Обратная связь
//main.js show_panel