Статистика раздачи
Размер:  588 MB   |    Зарегистрирован:  2 года 6 месяцев   |    .torrent скачан:  162 раза   |   

Пиры будут получены при скачивании

 

Скачать порно Masiro-chan's Secret Toy / Mikoto-chan's Secret Toy через торрент бесплатно :: UnionPron.org

 
 
Автор Сообщение

Sakura

avatar Sakura


Masiro-chan's Secret Toy / みことちゃんのひみつ道具
Год производства: 2013 г.
Жанр: Animation, Internal Cumshot, Masturbation, Golden Shower/Urination/Pee, Blowjob/Oral, Anal, Toys, Footjob, X-Ray
Продолжительность: 00:12:03
Цензура: Частично
Язык: Японский
Озвучка: Оригинальная
Студия: PlusEta
Описание:
Onani master Masiro loves to touch herself, so much that she does it with intensity she won't show to anyone.
Fiddle her and make her little mouth glisten with anticipation for the deep dildo.
DLsite
Качество видео: GameRip
Разрешение видео: 720p
Формат видео: MKV
Видео кодек: AVC
Аудио кодек: AC-3
Видео: AVC (Hight@L4.0), 960x720 (4:3), 29.970 fps, 2600 kbps
Аудио: AC-3, 44.1 kHz, 2 ch, 256 kbps
Общее
Уникальный идентификатор : 176647695228907637624037014459108989400 (0x84E51BCC37385D2B8294D819199E99D8)
Полное имя : D:\Trash\Secret Toy (GameRip) (720p)\Masiro-chan's Secret Toy.mkv
Формат : Matroska
Версия формата : Version 2
Размер файла : 247 Мбайт
Продолжительность : 12 м.
Общий поток : 2860 Кбит/сек
Дата кодирования : UTC 2014-08-28 12:49:39
Программа кодирования : mkvmerge v6.1.0 ('Old Devil') built on Mar 4 2013 09:10:42
Библиотека кодирования : libebml v1.3.0 + libmatroska v1.4.0

Видео
Идентификатор : 1
Формат : AVC
Формат/Информация : Advanced Video Codec
Профиль формата : High@L4.0
Параметр CABAC формата : Да
Параметр ReFrames формата : 8 кадров
Идентификатор кодека : V_MPEG4/ISO/AVC
Продолжительность : 12 м.
Битрейт : 2600 Кбит/сек
Ширина : 960 пикселей
Высота : 720 пикселей
Соотношение сторон : 4:3
Режим частоты кадров : Постоянный
Частота кадров : 29,970 кадров/сек
Цветовое пространство : YUV
Субдискретизация насыщенности : 4:2:0
Битовая глубина : 8 бит
Тип развёртки : Прогрессивная
Бит/(Пиксели*Кадры) : 0.126
Размер потока : 220 Мбайт (89%)
Библиотека кодирования : x264 core 130 r2273 b3065e6
Настройки программы : cabac=1 / ref=8 / deblock=1:-1:-1 / analyse=0x3:0x133 / me=umh / subme=9 / psy=1 / psy_rd=1.00:0.10 / mixed_ref=1 / me_range=16 / chroma_me=1 / trellis=2 / 8x8dct=1 / cqm=0 / deadzone=21,11 / fast_pskip=1 / chroma_qp_offset=-3 / threads=6 / lookahead_threads=1 / sliced_threads=0 / nr=0 / decimate=1 / interlaced=0 / bluray_compat=0 / constrained_intra=0 / bframes=3 / b_pyramid=2 / b_adapt=2 / b_bias=0 / direct=3 / weightb=1 / open_gop=0 / weightp=2 / keyint=250 / keyint_min=25 / scenecut=40 / intra_refresh=0 / rc_lookahead=60 / rc=2pass / mbtree=1 / bitrate=2600 / ratetol=1.0 / qcomp=0.60 / qpmin=0 / qpmax=69 / qpstep=4 / cplxblur=20.0 / qblur=0.5 / ip_ratio=1.40 / aq=1:1.00
Default : Да
Forced : Нет

Аудио
Идентификатор : 2
Формат : AC-3
Формат/Информация : Audio Coding 3
Расширение режима : CM (complete main)
Параметр Endianness формата : Big
Идентификатор кодека : A_AC3
Продолжительность : 12 м.
Вид битрейта : Постоянный
Битрейт : 256 Кбит/сек
Каналы : 2 канала
Расположение каналов : Front: L R
Частота : 44,1 КГц
Битовая глубина : 16 бит
Метод сжатия : С потерями
Размер потока : 22,1 Мбайт (9%)
Default : Да
Forced : Нет

Mikoto-chan's Secret Toy / みことちゃんのひみつ道具
Год производства: 2013 г.
Жанр: Animation, Internal Cumshot, Masturbation, Golden Shower/Urination/Pee, Blowjob/Oral, Anal, Toys, Footjob, X-Ray
Продолжительность: 00:18:01
Цензура: Частично
Язык: Японский
Озвучка: Оригинальная
Студия: PlusEta
Описание:
Onani master Mikoto loves to touch herself, so much that she does it with intensity she won't show to anyone.
Fiddle her and make her little mouth glisten with anticipation for the deep dildo.
DLsite
Качество видео: GameRip
Разрешение видео: 720p
Формат видео: MKV
Видео кодек: AVC
Аудио кодек: AC-3
Видео: AVC (Hight@L4.0), 960x720 (4:3), 29.970 fps, 2450 kbps
Аудио: AC-3, 44.1 kHz, 2 ch, 192 kbps
Общее
Уникальный идентификатор : 191493788002651654799675952640093318917 (0x90105CAF2AE5048CAB2E168FAE9BEF05)
Полное имя : D:\Trash\Secret Toy (GameRip) (720p)\Mikoto-chan's Secret Toy.mkv
Формат : Matroska
Версия формата : Version 2
Размер файла : 341 Мбайт
Продолжительность : 18 м.
Общий поток : 2645 Кбит/сек
Дата кодирования : UTC 2014-09-02 18:09:13
Программа кодирования : mkvmerge v6.1.0 ('Old Devil') built on Mar 4 2013 09:10:42
Библиотека кодирования : libebml v1.3.0 + libmatroska v1.4.0

Видео
Идентификатор : 1
Формат : AVC
Формат/Информация : Advanced Video Codec
Профиль формата : High@L3.1
Параметр CABAC формата : Да
Параметр ReFrames формата : 5 кадров
Идентификатор кодека : V_MPEG4/ISO/AVC
Продолжительность : 18 м.
Битрейт : 2450 Кбит/сек
Ширина : 960 пикселей
Высота : 720 пикселей
Соотношение сторон : 4:3
Режим частоты кадров : Постоянный
Частота кадров : 29,970 кадров/сек
Цветовое пространство : YUV
Субдискретизация насыщенности : 4:2:0
Битовая глубина : 8 бит
Тип развёртки : Прогрессивная
Бит/(Пиксели*Кадры) : 0.118
Размер потока : 310 Мбайт (91%)
Библиотека кодирования : x264 core 130 r2273 b3065e6
Настройки программы : cabac=1 / ref=5 / deblock=1:-1:-1 / analyse=0x3:0x113 / me=umh / subme=8 / psy=1 / psy_rd=1.00:0.10 / mixed_ref=1 / me_range=16 / chroma_me=1 / trellis=1 / 8x8dct=1 / cqm=0 / deadzone=21,11 / fast_pskip=1 / chroma_qp_offset=-3 / threads=6 / lookahead_threads=1 / sliced_threads=0 / nr=0 / decimate=1 / interlaced=0 / bluray_compat=0 / constrained_intra=0 / bframes=3 / b_pyramid=2 / b_adapt=2 / b_bias=0 / direct=3 / weightb=1 / open_gop=0 / weightp=2 / keyint=250 / keyint_min=25 / scenecut=40 / intra_refresh=0 / rc_lookahead=50 / rc=2pass / mbtree=1 / bitrate=2450 / ratetol=1.0 / qcomp=0.60 / qpmin=0 / qpmax=69 / qpstep=4 / cplxblur=20.0 / qblur=0.5 / ip_ratio=1.40 / aq=1:1.00
Default : Да
Forced : Нет

Аудио
Идентификатор : 2
Формат : AC-3
Формат/Информация : Audio Coding 3
Расширение режима : CM (complete main)
Параметр Endianness формата : Big
Идентификатор кодека : A_AC3
Продолжительность : 18 м.
Вид битрейта : Постоянный
Битрейт : 192 Кбит/сек
Каналы : 2 канала
Расположение каналов : Front: L R
Частота : 44,1 КГц
Битовая глубина : 16 бит
Метод сжатия : С потерями
Размер потока : 24,8 Мбайт (7%)
Default : Да
Forced : Нет
Трекер:  [ 02-Сен-2014 22:30 ]

Размер .torrent файла 12 KB


Размер: 588 MB
Хэш (hash) релиза: 4b032453d1e1b9b6c5db6b7a9a664993e7ce1253
Подписка на обновления:

Еще никто не оставлял запись к записи скачать торрент Masiro-chan's Secret Toy Mikoto-chan's Secret Toy . Будь первым!

!Обратная связь
//main.js show_panel