Статистика раздачи
Размер:  1.37 GB   |    Зарегистрирован:  2 года 7 месяцев   |    .torrent скачан:  102 раза   |   

Пиры будут получены при скачивании

 

Скачать порно Infamia | Docteur pervers | Emotion | Чувство ) через торрент бесплатно :: UnionPron.org

 
 
Автор Сообщение

Sakura

avatar Sakura


Infamia | Docteur pervers | Emotion | Чувство

Год производства: 2002 г.
Страна: Italy | Италия
Жанр: Feature, anal
Продолжительность: 01:41:46
Язык: Итальянский | Italian

Режиссер: D'Salvo
Студия: Moonlight Entertainment (Pure Play Media)

В ролях:
Actresses
Lara Angel (as Cathrine Billet) [Facial]
Alexa May (as Eva Cristaldi) [Facial]
Jessica May [Anal Facial]
Laura Angel (as Laura Angels) [Facial]
Mandy Bright [Anal Facial]
Sandra Iron [Anal Facial]
Christina Bella (as Sari Monella) [Anal Facial DP IR]
NonSex Performers
Jennifer Cool (as Leila)
Melody Magic
Polina
Sheena Pearl
Unknown Female 218111-C
Unknown Female 218111-D
Unknown Female 218111-E

Actors
Alberto Rey
Alex Mantegna
David Perry
Franco Roccaforte
Kris Newz (as Kris)
Mick Blue (as Michael Blu)
NonSex Performers
Julian St. Jox

Описание: Hardcore sexual confessions! A respected doctor and his impeccable wife live a peaceful life... until recently. Haunted by sexual dreams of her husband with other women, Nicole finds herself on the threshold - helplessly witnessing the sordid reality of her husband's lustful rapport.

Респектабельный доктор и его верная жена до недавнего времени жили тихо и спокойно. Часто посещаемая сексуальными снами о связях ее мужа с другими женщинами, Николь в реальности беспомощно наблюдает за неожиданной похотью мужа.

Scene Breakdowns:
Scene 1. Jessica May, Mick Blue
Scene 2. Alexa May, Kris Newz
Scene 3. Mandy Bright, David Perry
Scene 4. Sandra Iron, David Perry
Scene 5. Christina Bella, Alberto Rey, Franco Roccaforte
Scene 6. Laura Angel, Alex Mantegna
Scene 7. Lara Angel, Mandy Bright, David Perry
General
Format : MPEG-4
Format profile : JVT
Codec ID : avc1
File size : 1.37 GiB
Duration : 1h 41mn
Overall bit rate : 1 932 Kbps
Part/Position : 0
Part/Total : 0
Track name/Position : 0
Track name/Total : 0
Encoded date : UTC 2014-03-29 01:01:35
Tagged date : UTC 2014-03-29 01:21:44
Video #1
ID : 1
Format : AVC
Format/Info : Advanced Video Codec
Format profile : Baseline@L3.1
Format settings, CABAC : No
Format settings, ReFrames : 1 frame
Codec ID : avc1
Codec ID/Info : Advanced Video Coding
Duration : 1h 41mn
Bit rate mode : Variable
Bit rate : 1 800 Kbps
Maximum bit rate : 3 725 Kbps
Width : 720 pixels
Height : 400 pixels
Display aspect ratio : 16/9
Frame rate mode : Constant
Frame rate : 25.000 fps
Resolution : 24 bits
Colorimetry : 4:2:0
Scan type : Progressive
Bits/(Pixel*Frame) : 0.250
Stream size : 1.28 GiB (93%)
Writing library : x264 core 142 r2389+20 d6b4e63
Encoding settings : cabac=0 / ref=1 / deblock=1:0:0 / analyse=0x1:0 / me=dia / subme=2 / psy=1 / psy_rd=1.00:0.00 / mixed_ref=0 / me_range=16 / chroma_me=1 / trellis=0 / 8x8dct=0 / cqm=0 / deadzone=21,11 / fast_pskip=1 / chroma_qp_offset=0 / threads=3 / lookahead_threads=1 / sliced_threads=0 / nr=0 / decimate=1 / interlaced=0 / bluray_compat=0 / constrained_intra=0 / bframes=0 / weightp=0 / keyint=250 / keyint_min=25 / scenecut=40 / intra_refresh=0 / rc=abr / mbtree=0 / bitrate=1800 / ratetol=1.0 / qcomp=0.50 / qpmin=0 / qpmax=69 / qpstep=4 / ip_ratio=1.40 / aq=0
Encoded date : UTC 2014-03-29 01:01:35
Tagged date : UTC 2014-03-29 01:04:14
Audio #2
ID : 2
Format : AAC
Format/Info : Advanced Audio Codec
Format version : Version 4
Format profile : LC
Format settings, SBR : No
Codec ID : 40
Duration : 1h 41mn
Bit rate mode : Variable
Bit rate : 128 Kbps
Maximum bit rate : 154 Kbps
Channel(s) : 2 channels
Channel positions : L R
Sampling rate : 44.1 KHz
Resolution : 16 bits
Stream size : 93.2 MiB (7%)
Encoded date : UTC 2014-03-29 00:36:52
Tagged date : UTC 2014-03-29 01:04:14
Качество видео: DVDRip
Формат видео: MP4
Видео кодек: H.264/AVC
Аудио кодек: AAC
Видео: 720х400, 1800 kbps, 25.000 fps
Аудио: AAC LC, 128 kbps (VBR), 44.1 kHz, stereo, 1 stream
[url=...206436]Emotion (698 MB)[/url]
Трекер:  [ 12-Авг-2014 18:00 ]

Размер .torrent файла 14 KB


Размер: 1.37 GB
Хэш (hash) релиза: 18ea9b9669f902a0d4d097da909b493182990773
Подписка на обновления:

Еще никто не оставлял запись к записи скачать торрент Infamia | Docteur pervers | Emotion | Чувство . Будь первым!

!Обратная связь
//main.js show_panel