Статистика раздачи
Размер:  1.23 GB   |    Зарегистрирован:  2 года 10 месяцев   |    .torrent скачан:  85 раз   |   

Пиры будут получены при скачивании

 

Скачать порно Massenorgasmus / Mass Orgasm / Массовая Оргия ) через торрент бесплатно :: UnionPron.org

 
 
Автор Сообщение

Sakura

avatar Sakura


Massenorgasmus | Mass Orgasm | Массовая Оргия

Год производства: 1995 г.
Страна: Германия | Germany
Жанр: Feature
Продолжительность: 01:20:27
Язык: Немецкий

Режиссер: Jean Dark
Студия: Video Teresa Orlowski (VTO)

В ролях:
Actresses: Dalila Mina, Kelly Trump (as Nicole Heyka), Mano Muc, Kristel Burg, Dany Spey, Gundi Berg, Sabrina Kern, Dehlaila Lai (aka Latifa [2]), Deborha Cristel, Angelique Red
Actors: Jean Yves Le Castel, Aaron Nils, Toni Capella, Hakan Serbes (as Leon Gaulthier), Joey Murphy, Horst Kallinger, Nick Del, Toni Carlos, Chris Marsch, Fred Ommes, Peter, Erick, Wayne Schlegel (aka Olaf Tanner)

Описание: Na, wonach sieht das aus? Auf dem Cover ein Gewirr aus ineinander verschlungener, erregter Leiber und dazu der vielversprechende Titel "Massenorgasmus" - Richtig, hier startet eine Orgie der Superlative. Nicht weniger als 10 (!) heiße Mädels und 12 (!) stramme Kerle lassen sich allmählich in einen wahren Fickrausch fallen. Nachdem sich die Frauen zunächst gegenseitig verwöhnen, massieren und feucht geleckt haben, stossen (im wahrsten Sinne des Wortes) die Männer dazu. Und in kurzer Zeit entfesselt sich ein Feuerwerk ungezügelter Lust, das jeden mitreisst, der hineinschaut...

The movie “Massenorgasmus aka mass orgasm” (Cat.No. 1131) was originally released by VTO in 1995. DVD reissue as (Cat.No. VTO-04) by DBM on 27.06.2011. New DVD rip with German dubbed sound.

По сути одна большая оргия!
General
Format : MPEG-4
Format profile : Base Media / Version 2
Codec ID : mp42
File size : 1.23 GiB
Duration : 1h 20mn
Overall bit rate : 2 188 Kbps
Encoded date : UTC 2014-08-03 11:06:53
Tagged date : UTC 2014-08-03 11:25:51
Video #1
ID : 1
Format : AVC
Format/Info : Advanced Video Codec
Format profile : Main@L3.1
Format settings, CABAC : Yes
Format settings, ReFrames : 2 frames
Codec ID : avc1
Codec ID/Info : Advanced Video Coding
Duration : 1h 20mn
Bit rate mode : Variable
Bit rate : 1 992 Kbps
Maximum bit rate : 4 013 Kbps
Width : 768 pixels
Height : 576 pixels
Display aspect ratio : 4/3
Frame rate mode : Constant
Frame rate : 25.000 fps
Resolution : 24 bits
Colorimetry : 4:2:0
Scan type : Progressive
Bits/(Pixel*Frame) : 0.180
Stream size : 1.12 GiB (91%)
Encoded date : UTC 2014-08-03 11:06:53
Tagged date : UTC 2014-08-03 11:25:51
Audio #2
ID : 2
Format : AAC
Format/Info : Advanced Audio Codec
Format version : Version 4
Format profile : LC
Format settings, SBR : No
Codec ID : 40
Duration : 1h 20mn
Bit rate mode : Variable
Bit rate : 192 Kbps
Maximum bit rate : 218 Kbps
Channel(s) : 2 channels
Channel positions : L R
Sampling rate : 48.0 KHz
Resolution : 16 bits
Stream size : 110 MiB (9%)
Title : deu
Language : German
Encoded date : UTC 2014-08-03 11:06:53
Tagged date : UTC 2014-08-03 11:25:51
Качество видео: DVDRip
Формат видео: MP4
Видео кодек: H.264/AVC
Аудио кодек: AAC
Видео: 768x576, 1992 kbps, 25 fps
Аудио: AAC LC, 192 kbps (VBR), 48 kHz, stereo, 1 stream
Трекер:  [ 05-Авг-2014 19:30 ]

Размер .torrent файла 13 KB


Размер: 1.23 GB
Хэш (hash) релиза: 6ebbd75cfdadc322d41b37116e97411886cf4953
Подписка на обновления:

Еще никто не оставлял запись к записи скачать торрент Massenorgasmus Mass Orgasm . Будь первым!

!Обратная связь
//main.js show_panel