Статистика раздачи
Размер:  1.36 GB   |    Зарегистрирован:  3 года   |    .torrent скачан:  49 раз   |   

Пиры будут получены при скачивании

 

Скачать порно La Banda Del Sabato Sera | Atraco Sexual | Raptadas e Violadas | Saturday Night Band | Sexy folies du Samedi soir | Банда Субботнего Вечера через торрент бесплатно :: UnionPron.org

 
 
Автор Сообщение

Sakura

avatar Sakura


La Banda Del Sabato Sera | Atraco Sexual | Raptadas e Violadas
Saturday Night Band | Sexy folies du Samedi soir | Violences du Samedi soir | Банда Субботнего Вечера

[url=...643990] [/url]
Год производства: 2000 г.
Страна: Italy | Италия
Жанр: Feature
Продолжительность: 01:33:26
Язык: Испанский | Spanish

Режиссер: Giancarlo Bini
Студия: BC Media | 999 Black & Blue Productions

В ролях:
Actresses
Karma (as Candy Monson) [Anal Facial Bald]
Verena (as Dagmar Vosic) [Anal Facial]
Julia Taylor [Anal Facial]
Laura Angel [Anal]
Dora Venter (as Melinda Jensen) [Facial Bald]

Actors
Alessio Ravella
Don Fernando
Philippe Dean
Roberto Malone (as Robert Malone)
Valentino
NonSex Performers
Ade Pompelmi
Rodolphe Antrim (as Rudy Manero)
Tony Andreottola
Unknown Male 220064

Описание: Эта банда готова на все, лишь бы заполучить сексапильных девушек.
General
Format : Matroska
File size : 1.36 GiB
Duration : 1h 33mn
Overall bit rate : 2 085 Kbps
Movie name : MegaPost.org
Encoded date : UTC 2014-05-13 00:04:17
Writing application : mkvmerge v6.7.0 ('Back to the Ground') 32bit built on Jan 8 2014 15:03:17
Writing library : libebml v1.3.0 + libmatroska v1.4.1
Video #1
ID : 1
Format : AVC
Format/Info : Advanced Video Codec
Format profile : Main@L3.0
Format settings, CABAC : Yes
Format settings, ReFrames : 4 frames
Muxing mode : Container profile=Unknown@3.0
Codec ID : V_MPEG4/ISO/AVC
Duration : 1h 33mn
Bit rate : 1 883 Kbps
Nominal bit rate : 1 931 Kbps
Width : 704 pixels
Height : 528 pixels
Display aspect ratio : 4/3
Frame rate mode : Variable
Frame rate : 25.000 fps
Resolution : 24 bits
Colorimetry : 4:2:0
Scan type : Progressive
Bits/(Pixel*Frame) : 0.203
Stream size : 1.23 GiB (90%)
Title : MegaPost.org
Writing library : x264 core 112
Encoding settings : cabac=1 / ref=2 / deblock=1:0:0 / analyse=0x1:0x111 / me=hex / subme=6 / psy=1 / psy_rd=1.00:0.00 / mixed_ref=0 / me_range=16 / chroma_me=1 / trellis=0 / 8x8dct=0 / cqm=0 / deadzone=21,11 / fast_pskip=1 / chroma_qp_offset=-2 / threads=3 / sliced_threads=0 / nr=0 / decimate=1 / interlaced=0 / constrained_intra=0 / bframes=2 / b_pyramid=2 / b_adapt=1 / b_bias=0 / direct=1 / weightb=0 / open_gop=0 / weightp=2 / keyint=250 / keyint_min=25 / scenecut=40 / intra_refresh=0 / rc_lookahead=40 / rc=abr / mbtree=1 / bitrate=1931 / ratetol=1.0 / qcomp=0.60 / qpmin=3 / qpmax=51 / qpstep=4 / ip_ratio=1.40 / aq=1:1.00
Audio #2
ID : 2
Format : AC-3
Format/Info : Audio Coding 3
Codec ID : A_AC3
Duration : 1h 33mn
Bit rate mode : Constant
Bit rate : 160 Kbps
Channel(s) : 2 channels
Channel positions : L R
Sampling rate : 48.0 KHz
Stream size : 107 MiB (8%)
Title : MegaPost.org
Language : Italian
Качество видео: DVDRip
Формат видео: MKV
Видео кодек: H.264/AVC
Аудио кодек: AC3
Видео: 704x528, 1931 kbps, 25 fps
Аудио: 48 kHz, stereo, 1 stream, 160 kbps(CBR)
[url=...942522]La Banda Del Sabato Sera (699 Mb)[/url]
Трекер:  [ 31-Июл-2014 19:00 ]

Размер .torrent файла 14 KB


Размер: 1.36 GB
Хэш (hash) релиза: bc5263cb585dded66d3805d0a6fe7ece086377d2
Подписка на обновления:

Еще никто не оставлял запись к записи скачать торрент La Banda Del Sabato Sera | Atraco Sexual | Raptadas e Violadas | Saturday Night Band | Sexy folies du Samedi soir | Банда Субботнего Вечера . Будь первым!

!Обратная связь
//main.js show_panel