Статистика раздачи
Размер:  1.96 GB   |    Зарегистрирован:  2 года 10 месяцев   |    .torrent скачан:  156 раз   |   

Пиры будут получены при скачивании

 

Скачать порно Lady Chatterley's Stories | Истории леди Чаттерлей через торрент бесплатно :: UnionPron.org

 
 
Автор Сообщение

Sakura

avatar Sakura


Lady Chatterley's Stories | Истории леди Чаттерлей (4 серии)

Год производства: 2000-2001 г.
Страна: США | USA
Жанр: Erotic, Drama
Язык: Английский | English

Режиссер: Rebecca Lord
Студия: MRG Entertainment

В главных ролях: [url=...1356894]Shauna O'Brien[/url]
Описание: Lady (apparently her first name, not a title) Chatterley (Shauna O'Brien) entertains friends and guests with erotic stories and games leading to their involvement in sensuous activities.

Леди Чаттерлей - богатая женщина, которая втягивает себя и своих друзей в разные сексуальные истории. Будучи постоянно в поиске удовольствия, она ищет эротические моменты и в каждом человеке. Ее друзья приходят к ней со своими проблемами в личной жизни в надежде на помощь, освежить угасающие отношения и привнести новые эротические ощущения в их жизни. Леди Чаттерлей исполняет и свои фантазии.

Качество видео: TVRip
Формат видео: AVI
Видео кодек: DivX
Аудио кодек: MP3
Видео: DivX 5 720x480 30.00fps
Аудио: MPEG Audio Layer 3 24000Hz stereo 48Kbps
у роликов качество и формат различные

Общая продолжительность: 01:50:57+РОЛИКИ
Сезон 1, Эпизод 1
Дата выхода - 2000
Продолжительность: 00:30:01
I:\Фильмы\Lady Chatterleys Stories\LCS_-_A_Real_Man.avi
General
Complete name : I:\Фильмы\Lady Chatterleys Stories\LCS_-_A_Real_Man.avi
Format : AVI
Format/Info : Audio Video Interleave
File size : 440 MiB
Duration : 30mn 1s
Overall bit rate : 2 048 Kbps
Video
Format : MPEG-4 Visual
Format settings, BVOP : Yes
Format settings, QPel : No
Format settings, GMC : No warppoints
Format settings, Matrix : Default (H.263)
Muxing mode : Packed bitstream
Codec ID : DX50
Codec ID/Hint : DivX 5
Duration : 30mn 1s
Bit rate : 1 996 Kbps
Width : 720 pixels
Height : 480 pixels
Display aspect ratio : 1.500
Frame rate : 30.000 fps
Standard : NTSC
Resolution : 24 bits
Colorimetry : 4:2:0
Scan type : Progressive
Bits/(Pixel*Frame) : 0.192
Stream size : 429 MiB (97%)
Writing library : DivX 6.8.5
Audio
Format : MPEG Audio
Format version : Version 2
Format profile : Layer 3
Codec ID : 55
Codec ID/Hint : MP3
Duration : 30mn 1s
Bit rate mode : Constant
Bit rate : 48.0 Kbps
Channel(s) : 2 channels
Sampling rate : 24.0 KHz
Resolution : 16 bits
Stream size : 10.3 MiB (2%)
Alignment : Split accross interleaves
Interleave, duration : 1000 ms (29.99 video frames)
В ролях: Shauna O'Brien, Linda Diego, Julie Meadows, Jason Schnuit, Vince Voyeur
Сезон 1, Эпизод 2
Дата выхода - 2000
Продолжительность: 00:26:14
General
Format : AVI
Format/Info : Audio Video Interleave
File size : 384 MiB
Duration : 26mn 14s
Overall bit rate : 2 048 Kbps
Video
Format : MPEG-4 Visual
Format settings, BVOP : Yes
Format settings, QPel : No
Format settings, GMC : No warppoints
Format settings, Matrix : Default (H.263)
Muxing mode : Packed bitstream
Codec ID : DX50
Codec ID/Hint : DivX 5
Duration : 26mn 14s
Bit rate : 1 996 Kbps
Width : 720 pixels
Height : 480 pixels
Display aspect ratio : 1.500
Frame rate : 30.000 fps
Standard : NTSC
Resolution : 24 bits
Colorimetry : 4:2:0
Scan type : Progressive
Bits/(Pixel*Frame) : 0.192
Stream size : 375 MiB (97%)
Writing library : DivX 6.8.5
Audio
Format : MPEG Audio
Format version : Version 2
Format profile : Layer 3
Codec ID : 55
Codec ID/Hint : MP3
Duration : 26mn 14s
Bit rate mode : Constant
Bit rate : 48.0 Kbps
Channel(s) : 2 channels
Sampling rate : 24.0 KHz
Resolution : 16 bits
Stream size : 9.01 MiB (2%)
Alignment : Split accross interleaves
Interleave, duration : 1000 ms (29.99 video frames)
В ролях: Shauna O'Brien, Michelle Hall, Randy Mann, Julianna Sterling, Peggy Trentini, David Usher
Сезон 2, Эпизод 7
Дата выхода - 17 марта 2001
Продолжительность: 00:27:58
General
Format/Info : Audio Video Interleave
File size : 410 MiB
Duration : 27mn 59s
Overall bit rate : 2 049 Kbps
Video
Format : MPEG-4 Visual
Format settings, BVOP : Yes
Format settings, QPel : No
Format settings, GMC : No warppoints
Format settings, Matrix : Default (H.263)
Muxing mode : Packed bitstream
Codec ID : DX50
Codec ID/Hint : DivX 5
Duration : 27mn 59s
Bit rate : 1 997 Kbps
Width : 720 pixels
Height : 480 pixels
Display aspect ratio : 1.500
Frame rate : 30.000 fps
Standard : NTSC
Resolution : 24 bits
Colorimetry : 4:2:0
Scan type : Progressive
Bits/(Pixel*Frame) : 0.193
Stream size : 400 MiB (97%)
Writing library : DivX 6.8.5
Audio
Format : MPEG Audio
Format version : Version 2
Format profile : Layer 3
Codec ID : 55
Codec ID/Hint : MP3
Duration : 27mn 58s
Bit rate mode : Constant
Bit rate : 48.0 Kbps
Channel(s) : 2 channels
Sampling rate : 24.0 KHz
Resolution : 16 bits
Stream size : 9.61 MiB (2%)
Alignment : Split accross interleaves
Interleave, duration : 1000 ms (30.00 video frames)
В ролях: Willie Edum, Julianna Sterling, Alina Thompson, Shauna O'Brien
Сезон 2, Эпизод 10
Дата выхода - 7 апреля 2001
Продолжительность: 00:26:44
General
Format : AVI
Format/Info : Audio Video Interleave
File size : 392 MiB
Duration : 26mn 44s
Overall bit rate : 2 048 Kbps
Video
Format : MPEG-4 Visual
Format settings, BVOP : Yes
Format settings, QPel : No
Format settings, GMC : No warppoints
Format settings, Matrix : Default (H.263)
Muxing mode : Packed bitstream
Codec ID : DX50
Codec ID/Hint : DivX 5
Duration : 26mn 44s
Bit rate : 1 996 Kbps
Width : 720 pixels
Height : 480 pixels
Display aspect ratio : 1.500
Frame rate : 30.000 fps
Standard : NTSC
Resolution : 24 bits
Colorimetry : 4:2:0
Scan type : Progressive
Bits/(Pixel*Frame) : 0.192
Stream size : 382 MiB (97%)
Writing library : DivX 6.8.5
Audio
Format : MPEG Audio
Format version : Version 2
Format profile : Layer 3
Codec ID : 55
Codec ID/Hint : MP3
Duration : 26mn 44s
Bit rate mode : Constant
Bit rate : 48.0 Kbps
Channel(s) : 2 channels
Sampling rate : 24.0 KHz
Resolution : 16 bits
Stream size : 9.18 MiB (2%)
Alignment : Split accross interleaves
Interleave, duration : 1000 ms (29.99 video frames)
В ролях: Jarod Carey, Susan Featherly, Angela Grant, Peggy Trentini
Трекер:  [ 28-Июл-2014 19:30 ]

Размер .torrent файла 23 KB


Размер: 1.96 GB
Хэш (hash) релиза: 5b1de68dca63797dfa9b48f1fd7f9c655c49177c
Подписка на обновления:

Еще никто не оставлял запись к записи скачать торрент Lady Chatterley's Stories | Истории леди Чаттерлей . Будь первым!

!Обратная связь
//main.js show_panel