Статистика раздачи
Размер:  2 GB   |    Зарегистрирован:  2 года 8 месяцев   |    .torrent скачан:  45 раз   |   

Пиры будут получены при скачивании

 

Скачать порно Amber Rain Pack / Голубоглазая блондинка Amber Rain ПАК через торрент бесплатно :: UnionPron.org

 
 
Автор Сообщение

Sakura

avatar Sakura


Голубоглазая блондинка Amber Rain ПАК

Имя актрисы: Amber Rain
Псевдонимы актрисы: Amber Raine, Amber Rein, Amber Rayne
Жанр: Anal, Gangbang, Oral, Teen, Lesbian

Тип ПАКа: В ПАКе от 15 до 50 роликов (Pack)
Количество роликов: 27

Описание: Биография
Birthday November 07, 1983
Astrology Scorpio
Birthplace Inland Empire, CA
Years Active 2003-2005 (Started around 20 years old)
Ethnicity Caucasian
Nationality/Heritage American
Hair Color Blond
Measurements 34B-26-36
Height 5 feet, 3 inches (160 cm)
Weight 101 lbs (46 kg)
Tattoos None
Non-Ear Piercings Navel
18 and Nasty 35
20 Teens Who Like To Suck Cocks
Absolutely Adorable
Anal Teen Tryouts 1
Apprentass 3
Babyfaced Nymphettes
Backseat Bangers 6
Barefoot Confidential 27
Big Cock Seductions 9
Bigger the Blacker the Better 2
Black Dicks in White Chicks 5
Bring 'um Young 13
Built To Fuck: Sexy Coeds In Heat
Charm School Brats
Chick Flick 4
Code Blue
Cum Dumpsters 4
Cum Dumpsters 5
Cumstains 1
Cytheria AKA Filthy Whore
Dear Whore 2
Deep Oral Teens 7
Deep Throat This 12
Diablows 1
Eighteen 'N Interracial 8
Evil Vault 1
Fantasyland
First Offense 4
Four X Four 2
Fuck It, the Damage is Done
Hellcats 2
Hi-teen Club 6
Hot Showers 11
Innocence Pure Pink
Interracial Relations
Just Over Eighteen 7
Juvenescence
Kinky Young Girls
Lessons In Lust 1
Let Me Taste It 1
Little White Slave Girls 4
Made For Hardcore 2
Malibu's Most Hunted 1
Mature Women With Younger Girls 5
MILFs and Maidens 1
More Dirty Debutantes 257
Mouth to Toe 2 Gentlemen's Video
North Pole 41 Northstar Associates
Not Just Another 8 Teen Movie 1
Possession
Real College Girls 10
Ripe 'n Ready 2
Ron Jeremy on the Loose: Atlantic City
Runaway Butts 7
School of Cock
Search for the Ripe Peach 2
Seducing Naked Young Girls
Share the Spunk 3
Soloerotica 3
Space Nuts
Sweet 18 1
Take That Deep Throat This 2
Teen Beauties in Heat 1
Teen Meat 1
Teen Tryouts Audition 25
Teen Wet Cotton Panties
Teenage Fantasies 2
Totally Natural 7
Totally Natural 8
Triple Playas 3
Tryst Of Fate
Up And Cummers 121
Warning I Fuck On The First Date 2
Young Sluts, Inc. 12
Young Stuff 1
Доп. информация: Пак не полный, так как некоторые фильмы трудно найти, но поиски продолжаются и периодически буду обновлять.
Если у кого-то есть какие-то ролики или фильмы с этой милашкой, сообщайте.
Чуть позже выложу список фильмов, в которых используется одно и тот же видео.
Если в оформлении что-то накосячил, говорите исправлю
Формат файла: .wmv (Windows Media)
Размер файла: 167.61 MB
Длительность: 45mn 24s

Тип потока: Видео
Длительность: 00:45:24
Кодек: VC-1
Кодек/Описание: Windows Media Video 9
Кодек/Профиль: MP@ML
Кодек/ID: WMV3
Размеры изображения: 480 x 360 (4:3)
Частота кадров: 28.002 fps
Размер потока: 145 MiB (87%)
Битрейт: 448 Kbps
Битрейт/тип: CBR
Тип развёртки: Progressive
Глубина: 8 bits

Тип потока: Звук #1
Язык: Russian
Длительность: 00:45:24.397
Кодек: WMA
Кодек/ID: 161
Частота дискретизации: 44.1 KHz
Каналов: 2 channels
Битрейт: 64.0 Kbps
Битрейт/тип: Constant
Размер потока: 20.8 MiB (12%)
Глубина: 16 bits
Размер файла: 97.46 MB
Длительность: 6mn 25s
Битрейт (все потоки): 2 123 Kbps

Тип потока: Видео
Длительность: 00:06:25
Кодек: AVC
Кодек/Описание: Advanced Video Codec
Кодек/Профиль: Main@L3.0
Кодек/ID: avc1
Кодек/CABAC: Yes
Кодек/ReFrames: 2 frames
Размеры изображения: 640 x 480 (4:3)
Частота кадров: 29.970 fps
Частота кадров/тип: Constant
Размер потока: 91.4 MiB (94%)
Битрейт: 1 991 Kbps
Битрейт/макс: 2 200 Kbps
Битрейт/тип: VBR
Цветовое пространство: YUV
Тип развёртки: Progressive
Глубина: 8 bits

Тип потока: Звук #1
Длительность: 00:06:24.987
Кодек: AAC
Кодек/Описание: Advanced Audio Codec
Кодек/Профиль: LC
Кодек/ID: 40
Частота дискретизации: 44.1 KHz
Каналов: 2 channels
Битрейт: 126 Kbps
Битрейт/тип: Variable
Размер потока: 5.77 MiB (6%)
Метод сжатия: Lossy
Формат файла: .wmv (Windows Media)
Размер файла: 315.35 MB
Длительность: 18mn 37s
Битрейт (все потоки): 2 367 Kbps
Битрейт (все потоки, максимальный): 3 173 Kbps

Тип потока: Видео
Длительность: 00:18:37
Кодек: VC-1
Кодек/Описание: Windows Media Video 9
Кодек/Профиль: MP@ML
Кодек/ID: WMV3
Размеры изображения: 352 x 240 (3:2)
Частота кадров: 29.970 fps
Размер потока: 406 MiB
Битрейт: 3 050 Kbps
Битрейт/тип: CBR
Стандарт: NTSC
Тип развёртки: Progressive
Глубина: 8 bits

Тип потока: Звук #1
Язык: Russian
Длительность: 00:18:37.808
Кодек: WMA
Кодек/ID: 161
Частота дискретизации: 44.1 KHz
Каналов: 2 channels
Битрейт: 96.0 Kbps
Битрейт/тип: Constant
Размер потока: 12.8 MiB (4%)
Глубина: 16 bits
Формат файла: .wmv (Windows Media)
Размер файла: 489.51 MB
Длительность: 21mn 39s
Битрейт (все потоки): 3 160 Kbps
Битрейт (все потоки, максимальный): 3 173 Kbps
Тип битрейта (все потоки): Constant

Тип потока: Видео
Длительность: 00:21:39
Кодек: VC-1
Кодек/Описание: Windows Media Video 9
Кодек/Профиль: MP@ML
Кодек/ID: WMV3
Размеры изображения: 720 x 480 (3:2)
Частота кадров: 29.970 fps
Размер потока: 472 MiB (97%)
Битрейт: 3 050 Kbps
Битрейт/тип: CBR
Стандарт: NTSC
Тип развёртки: Progressive
Глубина: 8 bits

Тип потока: Звук #1
Язык: Russian
Длительность: 00:21:39.667
Кодек: WMA
Кодек/ID: 161
Частота дискретизации: 44.1 KHz
Каналов: 2 channels
Битрейт: 96.0 Kbps
Битрейт/тип: Constant
Размер потока: 14.9 MiB (3%)
Глубина: 16 bits
Формат файла: .wmv (Windows Media)
Размер файла: 205.91 MB
Длительность: 9mn 7s
Битрейт (все потоки): 3 157 Kbps
Битрейт (все потоки, максимальный): 3 173 Kbps
Тип битрейта (все потоки): Constant

Тип потока: Видео
Длительность: 00:09:07
Кодек: VC-1
Кодек/Описание: Windows Media Video 9
Кодек/Профиль: MP@ML
Кодек/ID: WMV3
Размеры изображения: 640 x 384 (1.667)
Частота кадров: 25.000 fps
Размер потока: 199 MiB (97%)
Битрейт: 3 050 Kbps
Битрейт/тип: CBR
Тип развёртки: Progressive
Глубина: 8 bits

Тип потока: Звук #1
Язык: Russian
Длительность: 00:09:07.155
Кодек: WMA
Кодек/ID: 161
Частота дискретизации: 44.1 KHz
Каналов: 2 channels
Битрейт: 96.0 Kbps
Битрейт/тип: Constant
Размер потока: 6.26 MiB (3%)
Глубина: 16 bits
Формат файла: .avi (AVI)
Размер файла: 244.36 MB
Длительность: 14mn 37s
Битрейт (все потоки): 2 335 Kbps

Тип потока: Видео
Длительность: 00:14:37
Кодек: MPEG-4 Visual
Кодек/Профиль: Simple@L3
Кодек/ID: XVID
Размеры изображения: 640 x 480 (4:3)
Частота кадров: 29.970 fps
Размер потока: 230 MiB (94%)
Битрейт: 2 198 Kbps
Библиотека кодирования: XviD 0.0.09 (UTC 2003-03-25)
Цветовое пространство: YUV
Тип развёртки: Progressive
Глубина: 8 bits

Тип потока: Звук #1
Длительность: 00:14:37.872
Кодек: MPEG Audio
Кодек/Профиль: Layer 3
Кодек/ID: 55
Частота дискретизации: 48.0 KHz
Каналов: 2 channels
Битрейт: 128 Kbps
Битрейт/тип: Constant
Размер потока: 13.4 MiB (5%)
Метод сжатия: Lossy
Формат файла: .wmv (Windows Media)
Размер файла: 402.50 MB
Длительность: 17mn 48s
Битрейт (все потоки): 3 161 Kbps
Битрейт (все потоки, максимальный): 3 173 Kbps
Тип битрейта (все потоки): Constant

Тип потока: Видео
Длительность: 00:17:48
Кодек: VC-1
Кодек/Описание: Windows Media Video 9
Кодек/Профиль: MP@ML
Кодек/ID: WMV3
Размеры изображения: 640 x 480 (4:3)
Частота кадров: 29.970 fps
Размер потока: 388 MiB (96%)
Битрейт: 3 050 Kbps
Битрейт/тип: CBR
Тип развёртки: Progressive
Глубина: 8 bits

Тип потока: Звук #1
Язык: Russian
Длительность: 00:17:48.315
Кодек: WMA
Кодек/ID: 161
Частота дискретизации: 44.1 KHz
Каналов: 2 channels
Битрейт: 96.0 Kbps
Битрейт/тип: Constant
Размер потока: 12.2 MiB (3%)
Глубина: 16 bits
формат файла: .wmv (Windows Media)
Размер файла: 260.02 MB
Длительность: 17mn 16s
Битрейт (все потоки): 2 104 Kbps
Битрейт (все потоки, максимальный): 2 116 Kbps
Тип битрейта (все потоки): Constant

Тип потока: Видео
Длительность: 00:17:16
Кодек: VC-1
Кодек/Описание: Windows Media Video 9
Кодек/Профиль: MP@ML
Кодек/ID: WMV3
Размеры изображения: 720 x 528 (4:3)
Частота кадров: 29.970 fps
Размер потока: 247 MiB (95%)
Битрейт: 2 000 Kbps
Битрейт/тип: CBR
Тип развёртки: Progressive
Глубина: 8 bits

Тип потока: Звук #1
Язык: English
Длительность: 00:17:16.538
Кодек: WMA
Кодек/ID: 161
Частота дискретизации: 44.1 KHz
Каналов: 2 channels
Битрейт: 96.0 Kbps
Битрейт/тип: Constant
Размер потока: 11.9 MiB (5%)
Глубина: 16 bits
Формат файла: .wmv (Windows Media)
Размер файла: 499.44 MB
Длительность: 29mn 28s
Битрейт (все потоки): 2 369 Kbps
Битрейт (все потоки, максимальный): 2 510 Kbps
Тип битрейта (все потоки): Constant

Тип потока: Видео
Длительность: 00:29:28
Кодек: WMV2
Кодек/Описание: Windows Media Video 8
Кодек/ID: WMV2
Размеры изображения: 720 x 480 (3:2)
Частота кадров: 29.970 fps
Размер потока: 498 MiB (100%)
Битрейт: 2 360 Kbps
Битрейт/тип: CBR
Стандарт: NTSC
Глубина: 8 bits

Тип потока: Звук #1
Язык: English (US)
Длительность: 00:29:28.448
Кодек: WMA
Кодек/ID: 161
Частота дискретизации: 48.0 KHz
Каналов: 2 channels
Битрейт: 128 Kbps
Битрейт/тип: Constant
Размер потока: 27.0 MiB (5%)
Глубина: 16 bits
Формат файла: .wmv (Windows Media)
Размер файла: 413.91 MB
Длительность: 20mn 34s
Битрейт (все потоки): 2 812 Kbps
Битрейт (все потоки, максимальный): 3 173 Kbps
Тип битрейта (все потоки): Constant

Тип потока: Видео
Длительность: 00:20:34
Кодек: VC-1
Кодек/Описание: Windows Media Video 9
Кодек/Профиль: MP@ML
Кодек/ID: WMV3
Размеры изображения: 512 x 384 (4:3)
Частота кадров: 29.970 fps
Размер потока: 449 MiB
Битрейт: 3 050 Kbps
Битрейт/тип: CBR
Тип развёртки: Progressive
Глубина: 8 bits

Тип потока: Звук #1
Язык: Russian
Длительность: 00:20:34.930
Кодек: WMA
Кодек/ID: 161
Частота дискретизации: 44.1 KHz
Каналов: 2 channels
Битрейт: 96.0 Kbps
Битрейт/тип: Constant
Размер потока: 14.1 MiB (3%)
Глубина: 16 bits
Формат файла: .wmv (Windows Media)
Размер файла: 463.19 MB
Длительность: 20mn 29s
Битрейт (все потоки): 3 160 Kbps
Битрейт (все потоки, максимальный): 3 173 Kbps
Тип битрейта (все потоки): Constant

Тип потока: Видео
Длительность: 00:20:29
Кодек: VC-1
Кодек/Описание: Windows Media Video 9
Кодек/Профиль: MP@ML
Кодек/ID: WMV3
Размеры изображения: 720 x 480 (3:2)
Частота кадров: 29.970 fps
Размер потока: 447 MiB (97%)
Битрейт: 3 050 Kbps
Битрейт/тип: CBR
Стандарт: NTSC
Тип развёртки: Progressive
Глубина: 8 bits

Тип потока: Звук #1
Язык: Russian
Длительность: 00:20:29.728
Кодек: WMA
Кодек/ID: 161
Частота дискретизации: 44.1 KHz
Каналов: 2 channels
Битрейт: 96.0 Kbps
Битрейт/тип: Constant
Размер потока: 14.1 MiB (3%)
Глубина: 16 bits
Формат файла: .avi (AVI)
Размер файла: 169.29 MB
Длительность: 21mn 24s
Битрейт (все потоки): 1 106 Kbps

Тип потока: Видео
Длительность: 00:21:24
Кодек: MPEG-4 Visual
Кодек/Описание: Project Mayo
Кодек/Профиль: Simple@L1
Кодек/ID: DIVX
Размеры изображения: 640 x 480 (4:3)
Частота кадров: 23.976 fps
Размер потока: 153 MiB (90%)
Битрейт: 998 Kbps
Библиотека кодирования: Lavc51.21.0
Цветовое пространство: YUV
Тип развёртки: Progressive
Глубина: 8 bits

Тип потока: Звук #1
Длительность: 00:21:24.206
Кодек: MPEG Audio
Кодек/Профиль: Layer 3
Кодек/ID: 55
Частота дискретизации: 44.1 KHz
Каналов: 2 channels
Битрейт: 96.0 Kbps
Битрейт/тип: Constant
Размер потока: 14.7 MiB (9%)
Метод сжатия: Lossy
Программа: LAME3.96.
Формат файла: .avi (AVI)
Размер файла: 81.60 MB
Длительность: 10mn 19s
Битрейт (все потоки): 1 105 Kbps

Тип потока: Видео
Длительность: 00:10:19
Кодек: MPEG-4 Visual
Кодек/Описание: Project Mayo
Кодек/Профиль: Simple@L1
Кодек/ID: DIVX
Размеры изображения: 640 x 480 (4:3)
Частота кадров: 23.976 fps
Размер потока: 73.6 MiB (90%)
Битрейт: 997 Kbps
Библиотека кодирования: Lavc51.21.0
Цветовое пространство: YUV
Тип развёртки: Progressive
Глубина: 8 bits

Тип потока: Звук #1
Длительность: 00:10:19.311
Кодек: MPEG Audio
Кодек/Профиль: Layer 3
Кодек/ID: 55
Частота дискретизации: 44.1 KHz
Каналов: 2 channels
Битрейт: 96.0 Kbps
Битрейт/тип: Constant
Размер потока: 7.09 MiB (9%)
Метод сжатия: Lossy
Формат файла: .wmv (Windows Media)
Размер файла: 303.95 MB
Длительность: 14mn 55s
Битрейт (все потоки): 2 847 Kbps
Битрейт (все потоки, максимальный): 3 173 Kbps
Тип битрейта (все потоки): Constant

Тип потока: Видео
Длительность: 00:14:55
Кодек: VC-1
Кодек/Описание: Windows Media Video 9
Кодек/Профиль: MP@ML
Кодек/ID: WMV3
Размеры изображения: 512 x 384 (4:3)
Частота кадров: 29.970 fps
Размер потока: 326 MiB
Битрейт: 3 050 Kbps
Битрейт/тип: CBR
Тип развёртки: Progressive
Глубина: 8 bits

Тип потока: Звук #1
Язык: Russian
Длительность: 00:14:55.686
Кодек: WMA
Кодек/ID: 161
Частота дискретизации: 44.1 KHz
Каналов: 2 channels
Битрейт: 96.0 Kbps
Битрейт/тип: Constant
Размер потока: 10.3 MiB (3%)
Глубина: 16 bits
Формат файла: .wmv (Windows Media)
Размер файла: 349.83 MB
Длительность: 16mn 51s
Битрейт (все потоки): 2 903 Kbps
Битрейт (все потоки, максимальный): 3 173 Kbps
Тип битрейта (все потоки): Constant

Тип потока: Видео
Длительность: 00:16:51
Кодек: VC-1
Кодек/Описание: Windows Media Video 9
Кодек/Профиль: MP@ML
Кодек/ID: WMV3
Размеры изображения: 512 x 384 (4:3)
Частота кадров: 29.970 fps
Размер потока: 368 MiB
Битрейт: 3 050 Kbps
Битрейт/тип: CBR
Тип развёртки: Progressive
Глубина: 8 bits

Тип потока: Звук #1
Язык: Russian
Длительность: 00:16:51.008
Кодек: WMA
Кодек/ID: 161
Частота дискретизации: 44.1 KHz
Каналов: 2 channels
Битрейт: 96.0 Kbps
Битрейт/тип: Constant
Размер потока: 11.6 MiB (3%)
Глубина: 16 bits
Формат файла: .avi (AVI)
Размер файла: 184.86 MB
Длительность: 19mn 16s
Битрейт (все потоки): 1 341 Kbps
Тип битрейта (все потоки): Variable

Тип потока: Видео
Длительность: 00:19:16
Кодек: MPEG-4 Visual
Кодек/Профиль: Advanced Simple@L5
Кодек/ID: XVID
Размеры изображения: 480 x 360 (4:3)
Частота кадров: 30.000 fps
Размер потока: 174 MiB (94%)
Битрейт: 1 263 Kbps
Библиотека кодирования: XviD 1.2.1 (UTC 2008-12-04)
Цветовое пространство: YUV
Тип развёртки: Progressive
Глубина: 8 bits

Тип потока: Звук #1
Длительность: 00:19:16.519
Кодек: MPEG Audio
Кодек/Профиль: Layer 3
Кодек/ID: 55
Частота дискретизации: 44.1 KHz
Каналов: 2 channels
Битрейт: 64.0 Kbps
Битрейт/тип: Variable
Размер потока: 8.91 MiB (5%)
Метод сжатия: Lossy
Формат файла: .avi (AVI)
Размер файла: 330.26 MB
Длительность: 35mn 47s
Битрейт (все потоки): 1 290 Kbps

Тип потока: Видео
Длительность: 00:35:47
Кодек: MPEG-4 Visual
Кодек/Описание: Mainly used by Google
Кодек/Профиль: Simple@L1
Кодек/ID: divx
Размеры изображения: 512 x 384 (4:3)
Частота кадров: 23.976 fps
Размер потока: 294 MiB (89%)
Битрейт: 1 151 Kbps
Библиотека кодирования: Lavc51.54.0
Цветовое пространство: YUV
Тип развёртки: Progressive
Глубина: 8 bits

Тип потока: Звук #1
Длительность: 00:35:47.082
Кодек: MPEG Audio
Кодек/Профиль: Layer 3
Кодек/ID: 55
Частота дискретизации: 22.05 KHz
Каналов: 2 channels
Битрейт: 128 Kbps
Битрейт/тип: Constant
Размер потока: 32.8 MiB (10%)
Метод сжатия: Lossy
Программа: LAME3.98 (beta)
Формат файла: .wmv (Windows Media)
Размер файла: 514.04 MB
Длительность: 22mn 48s
Битрейт (все потоки): 3 152 Kbps
Битрейт (все потоки, максимальный): 3 173 Kbps
Тип битрейта (все потоки): Constant

Тип потока: Видео
Длительность: 00:22:48
Кодек: VC-1
Кодек/Описание: Windows Media Video 9
Кодек/Профиль: MP@ML
Кодек/ID: WMV3
Размеры изображения: 640 x 480 (4:3)
Частота кадров: 29.970 fps
Размер потока: 497 MiB (97%)
Битрейт: 3 050 Kbps
Битрейт/тип: CBR
Тип развёртки: Progressive
Глубина: 8 bits

Тип потока: Звук #1
Язык: Russian
Длительность: 00:22:48.072
Кодек: WMA
Кодек/ID: 161
Частота дискретизации: 44.1 KHz
Каналов: 2 channels
Битрейт: 96.0 Kbps
Битрейт/тип: Constant
Размер потока: 15.7 MiB (3%)
Глубина: 16 bits
Формат файла: .wmv (Windows Media)
Размер файла: 279.20 MB
Длительность: 12mn 31s
Битрейт (все потоки): 3 115 Kbps
Битрейт (все потоки, максимальный): 3 173 Kbps
Тип битрейта (все потоки): Constant

Тип потока: Видео
Длительность: 00:12:31
Кодек: VC-1
Кодек/Описание: Windows Media Video 9
Кодек/Профиль: MP@ML
Кодек/ID: WMV3
Размеры изображения: 640 x 464 (1.379)
Частота кадров: 29.970 fps
Размер потока: 273 MiB (98%)
Битрейт: 3 050 Kbps
Битрейт/тип: CBR
Тип развёртки: Progressive
Глубина: 8 bits

Тип потока: Звук #1
Язык: Russian
Длительность: 00:12:31.861
Кодек: WMA
Кодек/ID: 161
Частота дискретизации: 44.1 KHz
Каналов: 2 channels
Битрейт: 96.0 Kbps
Битрейт/тип: Constant
Размер потока: 8.61 MiB (3%)
Глубина: 16 bits
Формат файла: .avi (AVI)
Размер файла: 558.19 MB
Длительность: 41mn 17s
Битрейт (все потоки): 1 890 Kbps
Тип битрейта (все потоки): Variable

Тип потока: Видео
Длительность: 00:41:17
Кодек: MPEG-4 Visual
Кодек/ID: DX50
Размеры изображения: 640 x 464 (1.379)
Частота кадров: 25.000 fps
Размер потока: 505 MiB (90%)
Битрейт: 1 709 Kbps
Библиотека кодирования: DivX 5.0.5 (UTC 2003-04-24)
Цветовое пространство: YUV
Тип развёртки: Progressive
Глубина: 8 bits

Тип потока: Звук #1
Длительность: 00:41:17.496
Кодек: MPEG Audio
Кодек/Профиль: Layer 3
Кодек/ID: 55
Частота дискретизации: 48.0 KHz
Каналов: 2 channels
Битрейт: 164 Kbps
Битрейт/тип: Variable
Размер потока: 49.6 MiB (9%)
Метод сжатия: Lossy
Формат файла: .wmv (Windows Media)
Размер файла: 526.77 MB
Длительность: 23mn 20s
Битрейт (все потоки): 3 156 Kbps
Битрейт (все потоки, максимальный): 3 173 Kbps
Тип битрейта (все потоки): Constant

Тип потока: Видео
Длительность: 00:23:20
Кодек: VC-1
Кодек/Описание: Windows Media Video 9
Кодек/Профиль: MP@ML
Кодек/ID: WMV3
Размеры изображения: 512 x 384 (4:3)
Частота кадров: 29.970 fps
Размер потока: 509 MiB (97%)
Битрейт: 3 050 Kbps
Битрейт/тип: CBR
Тип развёртки: Progressive
Глубина: 8 bits

Тип потока: Звук #1
Язык: Russian
Длительность: 00:23:20.070
Кодек: WMA
Кодек/ID: 161
Частота дискретизации: 44.1 KHz
Каналов: 2 channels
Битрейт: 96.0 Kbps
Битрейт/тип: Constant
Размер потока: 16.0 MiB (3%)
Глубина: 16 bits
Формат файла: .avi (AVI)
Размер файла: 244.00 MB
Длительность: 15mn 34s
Битрейт (все потоки): 2 189 Kbps

Тип потока: Видео
Длительность: 00:15:34
Кодек: xvid
Кодек/ID: xvid
Размеры изображения: 640 x 480 (4:3)
Частота кадров: 29.970 fps
Размер потока: 228 MiB (94%)
Битрейт: 2 048 Kbps

Тип потока: Звук #1
Длительность: 00:15:34.844
Кодек: MPEG Audio
Кодек/Профиль: Layer 3
Кодек/ID: 55
Частота дискретизации: 44.1 KHz
Каналов: 2 channels
Битрейт: 128 Kbps
Битрейт/тип: Constant
Размер потока: 14.3 MiB (6%)
Метод сжатия: Lossy
Программа: LAME3.97
Формат файла: .wmv (Windows Media)
Размер файла: 286.34 MB
Длительность: 16mn 6s
Битрейт (все потоки): 2 486 Kbps
Битрейт (все потоки, максимальный): 2 510 Kbps
Тип битрейта (все потоки): Constant

Тип потока: Видео
Длительность: 00:16:06
Кодек: WMV2
Кодек/Описание: Windows Media Video 8
Кодек/ID: WMV2
Размеры изображения: 720 x 480 (3:2)
Частота кадров: 29.970 fps
Размер потока: 272 MiB (95%)
Битрейт: 2 360 Kbps
Битрейт/тип: CBR
Стандарт: NTSC
Глубина: 8 bits

Тип потока: Звук #1
Язык: English (US)
Длительность: 00:16:06.314
Кодек: WMA
Кодек/ID: 161
Частота дискретизации: 48.0 KHz
Каналов: 2 channels
Битрейт: 128 Kbps
Битрейт/тип: Constant
Размер потока: 14.7 MiB (5%)
Глубина: 16 bits
Формат файла: .wmv (Windows Media)
Размер файла: 311.78 MB
Длительность: 23mn 11s
Битрейт (все потоки): 1 879 Kbps
Битрейт (все потоки, максимальный): 4 534 Kbps
Тип битрейта (все потоки): Variable

Тип потока: Видео
Длительность: 00:23:11
Кодек: WMV2
Кодек/Описание: Windows Media Video 8
Кодек/ID: WMV2
Размеры изображения: 640 x 480 (4:3)
Частота кадров: 23.976 fps
Размер потока: 345 MiB
Битрейт: 2 081 Kbps
Битрейт/тип: VBR
Глубина: 8 bits

Тип потока: Звук #1
Язык: English (US)
Длительность: 00:23:11.561
Кодек: WMA
Кодек/ID: 161
Частота дискретизации: 44.1 KHz
Каналов: 2 channels
Битрейт: 64.0 Kbps
Битрейт/тип: Constant
Размер потока: 10.6 MiB (3%)
Глубина: 16 bits
Формат файла: .wmv (Windows Media)
Размер файла: 282.82 MB
Длительность: 21mn 45s
Битрейт (все потоки): 1 818 Kbps
Битрейт (все потоки, максимальный): 4 240 Kbps
Тип битрейта (все потоки): Variable

Тип потока: Видео
Длительность: 00:21:45
Кодек: WMV2
Кодек/Описание: Windows Media Video 8
Кодек/ID: WMV2
Размеры изображения: 640 x 480 (4:3)
Частота кадров: 23.976 fps
Размер потока: 351 MiB
Битрейт: 2 255 Kbps
Битрейт/тип: VBR
Глубина: 8 bits

Тип потока: Звук #1
Язык: English (US)
Длительность: 00:21:45.147
Кодек: WMA
Кодек/ID: 161
Частота дискретизации: 44.1 KHz
Каналов: 2 channels
Битрейт: 64.0 Kbps
Битрейт/тип: Constant
Размер потока: 9.96 MiB (4%)
Глубина: 16 bits
Формат файла: .wmv (Windows Media)
Размер файла: 295.09 MB
Длительность: 13mn 45s
Битрейт (все потоки): 2 997 Kbps
Битрейт (все потоки, максимальный): 3 173 Kbps
Тип битрейта (все потоки): Constant

Тип потока: Видео
Длительность: 00:13:45
Кодек: VC-1
Кодек/Описание: Windows Media Video 9
Кодек/Профиль: MP@ML
Кодек/ID: WMV3
Размеры изображения: 512 x 384 (4:3)
Частота кадров: 29.970 fps
Размер потока: 300 MiB
Битрейт: 3 050 Kbps
Битрейт/тип: CBR
Тип развёртки: Progressive
Глубина: 8 bits

Тип потока: Звук #1
Язык: Russian
Длительность: 00:13:45.980
Кодек: WMA
Кодек/ID: 161
Частота дискретизации: 44.1 KHz
Каналов: 2 channels
Битрейт: 96.0 Kbps
Битрейт/тип: Constant
Размер потока: 9.46 MiB (3%)
Глубина: 16 bits
Формат файла: .wmv (Windows Media)
Размер файла: 390.76 MB
Длительность: 17mn 38s
Битрейт (все потоки): 3 096 Kbps
Битрейт (все потоки, максимальный): 3 173 Kbps
Тип битрейта (все потоки): Constant

Тип потока: Видео
Длительность: 00:17:38
Кодек: VC-1
Кодек/Описание: Windows Media Video 9
Кодек/Профиль: MP@ML
Кодек/ID: WMV3
Размеры изображения: 512 x 384 (4:3)
Частота кадров: 29.970 fps
Размер потока: 385 MiB (99%)
Битрейт: 3 050 Kbps
Битрейт/тип: CBR
Тип развёртки: Progressive
Глубина: 8 bits

Тип потока: Звук #1
Язык: Russian
Длительность: 00:17:38.921
Кодек: WMA
Кодек/ID: 161
Частота дискретизации: 44.1 KHz
Каналов: 2 channels
Битрейт: 96.0 Kbps
Битрейт/тип: Constant
Размер потока: 12.1 MiB (3%)
Глубина: 16 bits
Трекер:  [ 15-Июл-2014 16:00 ]

Размер .torrent файла 27 KB


Размер: 2 GB
Хэш (hash) релиза: 370a6719bc36c9994240c89e90f8effc22a8db52
Подписка на обновления:

Торренты, похожие на Amber Rain скачать торрент

Форум Название Автор Размер S L Добавлен
Паки порнороликов по актрисам / Actresses Clips Packs ·· Amber Rain (27) (Amber Raine, Amber Rein, Amber Rayne) Pack (Обновление 04.10.2014) / Голубоглазая блондинка Amber Rain ПАК [Anal, Gangbang, Oral, Teen] Sakura 104745553819.76 GB 0 0 1412406127

11:02

4-Окт-14

Сайтрипы 2014 / SiteRip's 2014 ·· Amber Rain - Cummy Feet [480p/08.22.2014 г., All Sex, Footjob, Oral, Foot Licking, Cum On Foot] Sakura 209779638200 MB 0 0 1422874899

15:01

2-Фев-15

Сайтрипы 2013 / SiteRip's 2013 ·· Amber Rain [2013 г., Oral, MILF, Handjob, 1080p] Bot 10811509091.01 GB 0 0 1384985091

02:04

21-Ноя-13

Сайтрипы 1991-2010 / SiteRip's 1991-2010 ·· Amber Rain (She Needs Some Cock / Another Hot Update) [11/22/2004; Gonzo, Oral, Anal] Sakura 8765897284 MB 0 0 1383931555

21:25

8-Ноя-13

Сайтрипы 1991-2010 / SiteRip's 1991-2010 ·· Amber Rain [2007 г., HandJob, Femdom, DVDRip] Sakura 261253292249 MB 0 0 1383919701

18:08

8-Ноя-13

Сайтрипы 1991-2010 / SiteRip's 1991-2010 ·· Cecilia Vega, Sasha Grey, Amber Rain [Pov, Gonzo, Anal, Internal Cumshot, Facial Cumshot, Swallow, Small Tits, Deepthroat, 720p] Sakura 34475522463.21 GB 0 0 1375034551

22:02

28-Июл-13

Подборки сайтрипов / SiteRip's Picture Packs ·· Allie Haze, Anikka Albrite, Asa Akira, Britney Amber, Chanel Preston, Romi Rain, Stormy Daniels (фотосеты к фильму "Pretty Dangerous" / 09.02.2015) [All Sex] [2495x1663, 255 фото] Sakura 7973658176 MB 0 0 1423603942

01:32

11-Фев-15

Сайтрипы 2014 / SiteRip's 2014 ·· Britney Amber and Megan Rain - In Awesome Threesome [540p/27.12.2014 г.,Show,Talking,Threesome,Lesbians,Masturbation,Vibrator,Squirt,All Sex,Oral,69,Deep Throat,Ball Licking,Cumshot] Sakura 12641668931.18 GB 0 0 1419716105

01:35

28-Дек-14

Сайтрипы 2014 (HD Video) / SiteRip's 2014 (HD Video) ·· Britney Amber and Megan Rain - In Awesome Threesome [720p/27.12.2014 г.,Show,Talking,Threesome,Lesbians,Masturbation,Vibrator,Squirt,All Sex,Oral,69,Deep Throat,Ball Licking,Cumshot] Sakura 19847995701.85 GB 0 0 1419699690

21:01

27-Дек-14

Сайтрипы 2014 (HD Video) / SiteRip's 2014 (HD Video) ·· Britney Amber & Megan Rain - In Awesome Threesome [27-12-2014, All Sex, Lesbi, Toys, 1080p] Sakura 33452286553.12 GB 0 0 1419669113

12:31

27-Дек-14

Еще никто не оставлял запись к записи скачать торрент Amber Rain . Будь первым!

!Обратная связь
//main.js show_panel