Статистика раздачи
Размер:  761 MB   |    Зарегистрирован:  3 года 1 месяц   |    .torrent скачан:  84 раза   |   

Пиры будут получены при скачивании

 

Скачать порно German Beauty | Красота по-немецки ) через торрент бесплатно :: UnionPron.org

 
 
Автор Сообщение

Sakura

avatar Sakura


German Beauty | Красота по-немецки
[url=...1209582] [/url][url=...1230369] [/url]
Год производства: 2001 г.
Страна: Германия | Germany
Жанр: Feature
Продолжительность: 01:31:34
Язык: Немецкий

Режиссер: H.C. Meteor
Студия: Multi Media Verlag (MMV)

В ролях:
Actresses
Benita Milano (as Benita) [Facial]
Cerien [BJOnly Facial]
[url=...1230369]Denise La Bouche[/url] [Facial]
[url=...1209582]Kelly Trump[/url] [Facial DP Bald]
Mandy Mistery (as Nicole)
Zita [Facial Bald]
NonSex Performers
Unknown Female 229694

Actors
Claudio Meloni (as Claudio)
Freddy Dalton (as Freddy)
Horst Baron (as Horst)
Jens Modena (as Jens)
J.J. (as Jörg)
Latte
Reinhardt
Titus Steel (as Titus)
NonSex Performers
Unknown Male 229700-C

Описание: Серые будни, которые наполнены малозначительными бессмысленными событиями, - вот удел большинства людей. Конечно, если главное событие дня - акт мастурбации под душем, тогда, да... тяжело. Такая жизнь пуста и неинтересна. Но наступает, обязательно наступает момент, который нельзя упустить, проспать, профукать! Настоящая жизнь - это страсть... Больше ничего нет... Да и не нужно.

Scene Breakdowns:

Scene 1. Reinhardt
Scene 2. [url=...1209582]Kelly Trump[/url], Freddy Dalton
Scene 3. Zita, Horst Baron
Scene 4. Benita Milano, Titus Steel
Scene 5. Cerien, [url=...1209582]Kelly Trump[/url], Mandy Mistery, Zita, Claudio Meloni, Jens Modena, J.J., Latte
Scene 6. Benita Milano, [url=...1230369]Denise La Bouche[/url], Titus Steel
Scene 7. [url=...1230369]Denise La Bouche[/url]
Scene 8. [url=...1230369]Denise La Bouche[/url], Reinhardt
General
Format : AVI
Format/Info : Audio Video Interleave
File size : 758 MiB
Duration : 1h 31mn
Overall bit rate : 1 158 Kbps
Writing library : VirtualDub build 11759/release
Video
Format : MPEG-4 Visual
Codec ID : DIV3
Codec ID/Hint : DivX 3 Low
Duration : 1h 31mn
Bit rate : 1 020 Kbps
Width : 624 pixels
Height : 480 pixels
Display aspect ratio : 1.300
Frame rate : 25.000 fps
Resolution : 24 bits
Bits/(Pixel*Frame) : 0.136
Stream size : 668 MiB (88%)
Audio
Format : MPEG Audio
Format version : Version 1
Format profile : Layer 3
Codec ID : 55
Codec ID/Hint : MP3
Duration : 1h 31mn
Bit rate mode : Constant
Bit rate : 128 Kbps
Channel(s) : 2 channels
Sampling rate : 48.0 KHz
Resolution : 16 bits
Stream size : 83.8 MiB (11%)
Alignment : Split accross interleaves
Interleave, duration : 40 ms (1.00 video frame)
Interleave, preload duration : 500 ms
Качество видео: DVDRip
Формат видео: AVI
Видео кодек: DivX
Аудио кодек: MP3
Видео: MPEG-4 Visual (DivX 3 Low), 1020 kbps, 25 fps, 624x480
Аудио: 128 kbps (CBR), 48 kHz, stereo, 1 stream
[url=...376054]German Beauty (661 MB)[/url]
Трекер:  [ 14-Июл-2014 13:00 ]

Размер .torrent файла 15 KB


Размер: 761 MB
Хэш (hash) релиза: 429da44286f48f03d51e8d56bc6a26242c863ad9
Подписка на обновления:

Еще никто не оставлял запись к записи скачать торрент German Beauty | Красота по-немецки . Будь первым!

!Обратная связь
//main.js show_panel