Статистика раздачи
Размер:  1.07 GB   |    Зарегистрирован:  3 года 1 месяц   |    .torrent скачан:  90 раз   |   

Пиры будут получены при скачивании

 

Скачать порно Malizia in Ufficio: le ragioniere si scatenano | Les Malicieuses | Malicia en la oficina | Мечты секретарши , Stars Pictures) через торрент бесплатно :: UnionPron.org

 
 
Автор Сообщение

Sakura

avatar Sakura


Malizia in Ufficio: le ragioniere si scatenano | Les Malicieuses | Malicia en la oficina | Мечты секретарши
Год производства: 1997 г.
Страна: Italy | Италия
Жанр: All sex, oral, anal, facial
Продолжительность: 01:28:14
Язык: Итальянский | Italian

Режиссер: Alex Martini (as Alex M. Dry)
Студия: Stars Pictures

В ролях:
Actresses

[url=...1148741]Dolly Golden[/url] [Anal]
[url=...1088220]Olivia del Rio[/url] [Anal Facial]
Sabina (as Sabrina) [Anal Facial]

Actors

Andrea Monti
Andrea Nobili
Andrea Spider
Bruno SX
Marc Barrow
Miro Merola
Philippe Dean

Scene Breakdowns:

Scene 1. [url=...1148741]Dolly Golden[/url], Sabina, Marc Barrow, Miro Merola
Scene 2. [url=...1088220]Olivia del Rio[/url], Andrea Monti, Andrea Spider
Scene 3. Sabina, Andrea Nobili
Scene 4. [url=...1148741]Dolly Golden[/url], [url=...1088220]Olivia del Rio[/url], Sabina, Andrea Nobili, Bruno SX, Marc Barrow, Philippe Dean

Качество видео: TVRip
Формат видео: MP4
Видео кодек: H.264/AVC
Аудио кодек: AAC
Видео: 672x504, 1600 kbps, 25 fps
Аудио: 128 kbps (CBR), 48 kHz, stereo, 1 stream
Описание:
Три секретутки под окном
Сидели дружно вечерком:
«Ка бы замом я была»
Говорит одна манда,
«То у шефа – главаря,
*уй сосала бы 3 дня.»
«А вот если б я была,-
Говорит втора пи*да,
«То на весь бы сраный мир,
Я б, устроила бы пир,
Я б бухала и давала,
А в конце бы я сплясала.»
«Ка бы замом я была,» -
Третья швабра молвилА,
«Я б для шефа – главаря,
Родила богатыря.»
И тут в офис входит босс,
Третьей бьёт он резко в нос,
«У меня от вас бл*дей,
Уже детсад богатырей.
Ну чо пилотки, в *опу бум?»,-
Так сказал он первым двум,
«Вы давайте спирт берите,
Да и шмоньки подотрите,
Ну а я, беру гандон», -
Так шеф сказал, и вышел вон.
General
Format : MPEG-4
Format profile : Base Media
Codec ID : isom
File size : 1.07 GiB
Duration : 1h 28mn
Overall bit rate : 1 729 Kbps
Encoded date : UTC 2011-02-17 00:09:12
Tagged date : UTC 2011-02-17 00:09:12
Video #1
ID : 1
Format : AVC
Format/Info : Advanced Video Codec
Format profile : High@L3.0
Format settings, CABAC : No
Format settings, ReFrames : 1 frame
Codec ID : avc1
Codec ID/Info : Advanced Video Coding
Duration : 1h 28mn
Bit rate mode : Variable
Bit rate : 1 598 Kbps
Width : 672 pixels
Height : 504 pixels
Display aspect ratio : 4/3
Frame rate mode : Constant
Frame rate : 25.000 fps
Standard : PAL
Resolution : 24 bits
Colorimetry : 4:2:0
Scan type : Progressive
Bits/(Pixel*Frame) : 0.189
Stream size : 1 010 MiB (92%)
Language : English
Encoded date : UTC 2011-02-17 00:09:12
Tagged date : UTC 2011-02-17 00:09:12
Audio #2
ID : 2
Format : AAC
Format/Info : Advanced Audio Codec
Format version : Version 4
Format profile : LC
Format settings, SBR : No
Codec ID : 40
Duration : 1h 28mn
Bit rate mode : Constant
Bit rate : 128 Kbps
Channel(s) : 2 channels
Channel positions : L R
Sampling rate : 48.0 KHz
Resolution : 16 bits
Stream size : 80.8 MiB (7%)
Language : English
Encoded date : UTC 2011-02-17 00:09:12
Tagged date : UTC 2011-02-17 00:09:12
[url=...1038749]Malizia in Ufficio DVDrip (694 MB)[/url]
Трекер:  [ 14-Июл-2014 13:00 ]

Размер .torrent файла 11 KB


Размер: 1.07 GB
Хэш (hash) релиза: 4936f37a6cee1e1f03d5baa80352d5b8862ae04b
Подписка на обновления:

Еще никто не оставлял запись к записи скачать торрент Malizia in Ufficio: le ragioniere si scatenano | Les Malicieuses | Malicia en la oficina | Мечты секретарши . Будь первым!

!Обратная связь
//main.js show_panel