Статистика раздачи
Размер:  1.36 GB   |    Зарегистрирован:  2 года 8 месяцев   |    .torrent скачан:  104 раза   |   

Пиры будут получены при скачивании

 

Скачать порно Il Settimo Paradiso | 7ème ciel | The Seventh Heaven | Седьмое Небо ) через торрент бесплатно :: UnionPron.org

 
 
Автор Сообщение

Sakura

avatar Sakura


Il Settimo Paradiso | 7ème ciel | The Seventh Heaven | Седьмое Небо

[url=...1287695] [/url]
Год производства: 2003 г.
Страна: Italy | Италия
Жанр: Feature, Story, Anal
Продолжительность: 01:44:16
Язык: Итальянский | Italian

Режиссер: D'Salvo
Студия: Capital Film (Stars Pictures)

В ролях:

Actresses
[url=...1206201]Alexa May[/url] [Facial]
[url=...1513161]Jessica May[/url] [Anal Facial]
[url=...1407036]Julia Taylor (as Julia Tailor)[/url] [Anal Facial Bald]
[url=...1287695]Laura Angel[/url] [DP]
Lenny Powers [Facial]
[url=...1039131]Sandra Russo[/url] [Anal Facial]
[url=...1359526]Sandy Style[/url] [Anal Facial A2M]
Viva (as Viva Singer) [Anal Facial]
NonSex Performers
Bobbi Eden

Actors
David Perry
Francesco Malcom
Max Cortes
Nick Lang
Robert Rosenberg (as Robert Rosemberg)
Zenza Raggi
NonSex Performers
Mick Blue

Описание: Le affascinanti e perverse, Sandra Russo, Julia Taylor, Laura Angel, sono le protagoniste di questa storia misteriosa e sensuale diretta da D'Salvo.
Очаровательные, и, в то же время, извращенные, Sandra Russo, Julia Taylor, Laura Angel, являются главными героинями этой чувственной и таинственной истории, рассказанной D'Salvo.

Scene Breakdowns:
Scene 1. [url=...1513161]Jessica May[/url], Robert Rosenberg
Scene 2. [url=...1287695]Laura Angel[/url], Lenny Powers, [url=...1359526]Sandy Style[/url], Max Cortes, Zenza Raggi
Scene 3. [url=...1407036]Julia Taylor[/url], Francesco Malcom
Scene 4. [url=...1359526]Sandy Style[/url], David Perry
Scene 5. [url=...1206201]Alexa May[/url], Max Cortes
Scene 6. Viva, Nick Lang
Scene 7. [url=...1039131]Sandra Russo[/url], Robert Rosenberg
General
Format : AVI
Format/Info : Audio Video Interleave
File size : 1.36 GiB
Duration : 1h 44mn
Overall bit rate : 1 861 Kbps
Writing library : VirtualDub build 13720/release
Video
Format : MPEG-4 Visual
Format settings, BVOP : Yes
Format settings, QPel : No
Format settings, GMC : No warppoints
Format settings, Matrix : Default (H.263)
Muxing mode : Packed bitstream
Codec ID : DX50
Codec ID/Hint : DivX 5
Duration : 1h 44mn
Bit rate : 1 723 Kbps
Width : 608 pixels
Height : 464 pixels
Display aspect ratio : 4/3
Frame rate : 25.000 fps
Resolution : 24 bits
Colorimetry : 4:2:0
Scan type : Progressive
Bits/(Pixel*Frame) : 0.244
Stream size : 1.26 GiB (93%)
Writing library : DivX 5.0.5 (UTC 2003-04-24)
Audio
Format : MPEG Audio
Format version : Version 1
Format profile : Layer 3
Codec ID : 55
Codec ID/Hint : MP3
Duration : 1h 44mn
Bit rate mode : Constant
Bit rate : 128 Kbps
Channel(s) : 2 channels
Sampling rate : 48.0 KHz
Resolution : 16 bits
Stream size : 95.5 MiB (7%)
Alignment : Split accross interleaves
Interleave, duration : 40 ms (1.00 video frame)
Interleave, preload duration : 500 ms
Качество видео: DVDRip
Формат видео: AVI
Видео кодек: DivX
Аудио кодек: MP3
Видео: MPEG-4 Visual (DivX 5), 1723 kbps, 25 fps, 608x464
Аудио: 128 kbps (CBR), 48 kHz, stereo, 1 stream
[url=...812402]Il Settimo Paradiso (696 MB)[/url]
Трекер:  [ 14-Июл-2014 13:00 ]

Размер .torrent файла 14 KB


Размер: 1.36 GB
Хэш (hash) релиза: f6e8bafb58bb38369076b45f066944ef79c7e29e
Подписка на обновления:

Еще никто не оставлял запись к записи скачать торрент Il Settimo Paradiso | 7ème ciel | The Seventh Heaven | Седьмое Небо . Будь первым!

!Обратная связь
//main.js show_panel