Статистика раздачи
Размер:  684 MB   |    Зарегистрирован:  2 года 10 месяцев   |    .torrent скачан:  51 раз   |   

Пиры будут получены при скачивании

 

Скачать порно Pin-ups / Фотографии красоток Bella Starr, Bianca Pureheart, Harley Davis, Jessica Jaymes, Julia Ann, Justine Joli, Katerina McKenna, Nikki Loren, Stormy Daniels через торрент бесплатно :: UnionPron.org

 
 
Автор Сообщение

Sakura

avatar Sakura


Pin-ups | Фотографии красоток

Год производства: 2003 г.
Страна: USA | США
Жанр: Feature , Art
Продолжительность: 01:26:33
Язык: Английский | English

Режиссер: Michael Raven
Студия: Wicked Pictures

В ролях:

Actresses
Bella Starr [LezOnly]
Bianca Pureheart (as Bianka Pureheart) [Facial]
Harley Davis [Facial]
[url=...1209868]Jessica Jaymes[/url] [LezOnly]
[url=...1573857]Julia Ann[/url] [Facial]
[url=...1131589]Justine Joli (as Justine)[/url] [LezOnly]
Katerina McKenna [LezOnly]
Nikki Loren (as Nicole Leshell) [MastOnly]
Sasha Monet [MastOnly]
[url=...1038586]Stormy Daniels (as Stormy)[/url] [Facial]
NonSex Performers
Charlie Laine

Actors
Chris Cannon
Eric Masterson
Randy Spears
Scott Styles
Talon

Описание: Разные истории ярких красоток! Листаем фотоальбом и любуемся видео-сценами!

Scene Breakdowns:
Scene 1. Nikki Loren
Scene 2. [url=...1573857]Julia Ann[/url], Randy Spears
Scene 3. Bella Starr, [url=...1209868]Jessica Jaymes[/url]
Scene 4. [url=...1038586]Stormy Daniels[/url], Scott Styles
Scene 5. [url=...1131589]Justine Joli[/url], Katerina McKenna
Scene 6. Harley Davis, Chris Cannon
Scene 7. Bianca Pureheart, Eric Masterson
Scene 8. Sasha Monet, Talon
General
Format : AVI
Format/Info : Audio Video Interleave
File size : 683 MiB
Duration : 1h 26mn
Overall bit rate : 1 103 Kbps
Writing application : Nandub v1.0rc2
Writing library : Nandub build 1852/release
Video
Format : MPEG-4 Visual
Codec ID : DIV3
Codec ID/Hint : DivX 3 Low
Duration : 1h 26mn
Bit rate : 979 Kbps
Width : 512 pixels
Height : 288 pixels
Display aspect ratio : 16/9
Frame rate : 29.970 fps
Resolution : 24 bits
Bits/(Pixel*Frame) : 0.222
Stream size : 606 MiB (89%)
Audio
Format : MPEG Audio
Format version : Version 1
Format profile : Layer 3
Codec ID : 55
Codec ID/Hint : MP3
Duration : 1h 26mn
Bit rate mode : Variable
Bit rate : 110 Kbps
Minimum bit rate : 96.0 Kbps
Channel(s) : 2 channels
Sampling rate : 48.0 KHz
Resolution : 16 bits
Stream size : 68.3 MiB (10%)
Alignment : Aligned on interleaves
Interleave, duration : 24 ms (0.72 video frame)
Interleave, preload duration : 161 ms
Writing library : LAME3.92
Encoding settings : -m j -V 4 -q 2 -lowpass 18.7 --vbr-new -b 96
Видео кодек: DivX
Аудио кодек: MP3
Видео: MPEG-4 Visual (DivX 3 Low), 979 kbps, 29.97 fps, 521x288
Аудио: 110 kbps (VBR), 48 kHz, stereo, 1 stream
Трекер:  [ 14-Июл-2014 13:00 ]

Размер .torrent файла 14 KB


Размер: 684 MB
Хэш (hash) релиза: ce84b28a0b2c8a071f8a857ea2d7d5adbd098840
Подписка на обновления:

Еще никто не оставлял запись к записи скачать торрент Pin-ups Фотографии красоток . Будь первым!

!Обратная связь
//main.js show_panel