Статистика раздачи
Размер:  599 MB   |    Зарегистрирован:  2 года 6 месяцев   |    .torrent скачан:  44 раза   |   

Пиры будут получены при скачивании

 

Скачать порно Insel Guru / Гуру Острова через торрент бесплатно :: UnionPron.org

 
 
Автор Сообщение

Sakura

avatar Sakura


Insel Guru / Гуру Острова

Год производства: 1990 г.
Страна: Германия
Продолжительность: 01:23:26
Язык: Немецкий

Режиссер: W.O.M.
Студия: Dino's Blue Movie

В ролях: Patric Newman, Eva Hartmann, Cornelia Perres, Biggi Mondi, Sanches, Bernd Zimmer

Описание: Eva,eine Aussteigerin in Spanien,bekommt vom Guru der insel Sexpillen,die wilde Sexfantasen auslosen.Eva erlebt die heibesten Sexnachte ihres Lebens.Naturlich gibt sie aush Pillen anihre Freunde ab.Bei Analbumsen,Pib-Spielen,Solos und Gruppenorgien huldigt man den INSEL GURU.
: General
Complete name : E:\Downloads\Insel Guru(1990).mp4
Format : MPEG-4
Format profile : Base Media
Codec ID : isom
File size : 599 MiB
Duration : 1h 23mn
Overall bit rate : 1 003 Kbps
Writing application : Lavf55.12.102

Video
ID : 1
Format : AVC
Format/Info : Advanced Video Codec
Format profile : High@L3.0
Format settings, CABAC : Yes
Format settings, ReFrames : 5 frames
Codec ID : avc1
Codec ID/Info : Advanced Video Coding
Duration : 1h 23mn
Bit rate : 933 Kbps
Width : 640 pixels
Height : 480 pixels
Display aspect ratio : 4:3
Frame rate mode : Constant
Frame rate : 25.000 fps
Color space : YUV
Chroma subsampling : 4:2:0
Bit depth : 8 bits
Scan type : Progressive
Bits/(Pixel*Frame) : 0.121
Stream size : 557 MiB (93%)
Writing library : x264 core 133 r2334 a3ac64b
Encoding settings : cabac=1 / ref=5 / deblock=1:0:0 / analyse=0x3:0x113 / me=umh / subme=8 / psy=1 / psy_rd=1.00:0.00 / mixed_ref=1 / me_range=16 / chroma_me=1 / trellis=1 / 8x8dct=1 / cqm=0 / deadzone=21,11 / fast_pskip=1 / chroma_qp_offset=2 / threads=6 / lookahead_threads=1 / sliced_threads=0 / nr=0 / decimate=1 / interlaced=0 / bluray_compat=0 / constrained_intra=0 / bframes=3 / b_pyramid=2 / b_adapt=2 / b_bias=0 / direct=3 / weightb=1 / open_gop=0 / weightp=2 / keyint=150 / keyint_min=15 / scenecut=40 / intra_refresh=0 / rc_lookahead=50 / rc=crf / mbtree=1 / crf=24.0 / qcomp=0.60 / qpmin=0 / qpmax=69 / qpstep=4 / vbv_maxrate=3000 / vbv_bufsize=3000 / crf_max=0.0 / nal_hrd=none / ip_ratio=1.40 / aq=1:1.00

Audio
ID : 2
Format : AAC
Format/Info : Advanced Audio Codec
Format profile : LC
Codec ID : 40
Duration : 1h 23mn
Duration_LastFrame : -10ms
Bit rate mode : Constant
Bit rate : 63.8 Kbps
Channel(s) : 2 channels
Channel(s)_Original : 1 channel
Channel positions : Front: C
Sampling rate : 44.1 KHz
Compression mode : Lossy
Stream size : 38.1 MiB (6%)
Качество видео: VHSRip
Формат видео: MP4
Трекер:  [ 14-Июл-2014 12:30 ]

Размер .torrent файла 12 KB


Размер: 599 MB
Хэш (hash) релиза: 1e5978d7b3e5fd63a232dd9d33952184cf932767
Подписка на обновления:

Еще никто не оставлял запись к записи скачать торрент Insel Guru Гуру Острова . Будь первым!

!Обратная связь
//main.js show_panel