Статистика раздачи
Размер:  526 MB   |    Зарегистрирован:  3 года 8 месяцев   |    .torrent скачан:  341 раз   |   

Пиры будут получены при скачивании

 

Скачать порно Jade Laroche через торрент бесплатно :: UnionPron.org

 
 
Автор Сообщение

Sakura

avatar Sakura


Jade Laroche baisée par un inconnu

Имя актрисы: Jade Laroche
Название ролика: Jade Laroche baisée par un inconnu

Год производства: 2014 г.
Жанр: Doggystyle,Oral,Blowjob,Big tits,Fetish
Продолжительность: 23mn 7s

Доп. информация: http://www.dorcelvision.com/studios/Very_Intime_Prod/7732/Jade_Laroche_baisee_par_un_inconnu
Format : AVI
Format/Info : Audio Video Interleave
File size : 526 MiB
Duration : 23mn 7s
Overall bit rate : 3 179 Kbps

Video
ID : 0
Format : AVC
Format/Info : Advanced Video Codec
Format profile : Main@L5.1
Format settings, CABAC : Yes
Format settings, ReFrames : 1 frame
Codec ID : H264
Duration : 12s 0ms
Bit rate : 2 977 Kbps
Width : 1 920 pixels
Height : 1 080 pixels
Display aspect ratio : 16:9
Frame rate : 25.000 fps
Color space : YUV
Chroma subsampling : 4:2:0
Bit depth : 8 bits
Scan type : Progressive
Bits/(Pixel*Frame) : 0.057
Stream size : 492 MiB (94%)

Audio
ID : 1
Format : MPEG Audio
Format version : Version 1
Format profile : Layer 3
Codec ID : 55
Codec ID/Hint : MP3
Duration : 23mn 7s
Bit rate mode : Constant
Bit rate : 192 Kbps
Channel(s) : 2 channels
Sampling rate : 44.1 KHz
Compression mode : Lossy
Stream size : 31.8 MiB (6%)
Alignment : Split accross interleaves
Interleave, duration : 40 ms (1.01 video frame)
Interleave, preload duration : 145 ms
Тип HD видео: 1080p
Трекер:  [ 22-Фев-2014 12:53 ]

Размер .torrent файла 10 KB


Размер: 526 MB
Хэш (hash) релиза: 094c272f9302fce3715e4b24cb622818deafccb8
Подписка на обновления:

Еще никто не оставлял запись к записи скачать торрент Jade Laroche . Будь первым!

!Обратная связь
//main.js show_panel