Статистика раздачи
Размер:  182 MB   |    Зарегистрирован:  1 год 5 месяцев   |    .torrent скачан:  125 раз   |   

Пиры будут получены при скачивании

 

Скачать порно Всасывание неэрегированного члена через торрент бесплатно :: UnionPron.org

 
 
Автор Сообщение

Sakura

avatar Sakura


Всасывание неэрегированного члена

Год производства: 2015 г.
Страна: Россия
Жанр: Видеокурс
Продолжительность: 00:18:37
Язык: Русский

Автор: Екатерина Федорова
В ролях: Екатерина Федорова

Описание:
Екатерина Федорова – специалист по межличностным отношениям, автор уникальной программы для женщин «Искусство любовных отношений»!
Есть масса интересных затей, что делать с эрегированным членом, но что делать, если он не стоит? Из этого видеоурока вы узнаете о технике, которая позволяет поднять то, что подниматься отказывается.
Техника не новая (как и сама проблема), ее использовали еще жрицы Древнего Египта, отсюда и ее второе название – «рука гуппи». По легенде, когда умирал Император Египта, к нему вызывали специально обученную жрицу. Она садилась на умирающего, всасывала своим влагалищем его ослабевший член и доводила его до оргазма. Таким образом, перенеся земные удовольствия через порог смерти, Император попадал в рай. Собственно в рай на земле попадет и любой мужчина, к которому вы примените эту технику.

Доп. информация:
Техника всасывания неэрегированного члена влагалищем достаточно простая в исполнении. Она не требует никаких особых физических данных, освоить ее может любая женщина. И даже тренироваться придется совсем недолго.
Сам процесс всасывания осуществляется за счет втягивания диафрагмы. Если делать это правильно, то всасывается не только сама диафрагма, но и буквально все, что у нас есть внутри, все внутренние органы. Ну и конечно, в общем движении участвует влагалище. При наличии рядом члена, оно будет всасывать член. В процессе тренировки оно втягивает воздух, а затем, когда вы диафрагму отпускаете, выталкивает его. Это то самое «маточное дыхание», о котором много говорят, но никто не умеет делать, только представляют.
Повторяя упражнения из этого видеоурока за Екатериной Фёдоровой, вы научитесь работать с диафрагмой.
Чтобы освоить эту технику достаточно в течение двух недель ежедневно делать по 10 выдохов-всасываний. Согласитесь, это не такая уж большая плата за возможность наслаждаться любовью каждый раз, как вы этого захотите!
Не забывайте, что тренируя диафрагму и весь связочный аппарат, вы не только расширяете свои сексуальные возможности, но и стимулируете работу всех внутренних органов, а значит, продлеваете молодость!
Общее
Полное имя : Федорова - Всасывание неэрегированного члена (2015)\rip1.mp4
Формат : MPEG-4
Профиль формата : Base Media / Version 2
Идентификатор кодека : mp42 (isom/iso2/avc1/mp41)
Размер файла : 182 Мбайт
Продолжительность : 18 м. 37 с.
Режим общего битрейта : Переменный
Общий поток : 1364 Кбит/сек
Программа кодирования : HandBrake 0.10.0 2014112200

Видео
Идентификатор : 1
Формат : AVC
Формат/Информация : Advanced Video Codec
Профиль формата : [email protected]
Параметр CABAC формата : Да
Параметр RefFrames формата : 4 кадра
Идентификатор кодека : avc1
Идентификатор кодека/Информация : Advanced Video Coding
Продолжительность : 18 м. 37 с.
Битрейт : 1197 Кбит/сек
Ширина : 1920 пикселей
Высота : 1080 пикселей
Соотношение сторон : 16:9
Режим частоты кадров : Переменный
Частота кадров : 25,000 кадров/сек
Минимальная частота кадров : 12,500 кадров/сек
Максимальная частота кадров : 25,000 кадров/сек
Цветовое пространство : YUV
Субдискретизация насыщенности : 4:2:0
Битовая глубина : 8 бит
Тип развёртки : Прогрессивная
Бит/(Пиксели*Кадры) : 0.023
Размер потока : 159 Мбайт (88%)
Библиотека кодирования : x264 core 142 r2479 dd79a61
Настройки программы : cabac=1 / ref=1 / deblock=1:0:0 / analyse=0x1:0x111 / me=hex / subme=2 / psy=1 / psy_rd=1.00:0.00 / mixed_ref=0 / me_range=16 / chroma_me=1 / trellis=0 / 8x8dct=0 / cqm=0 / deadzone=21,11 / fast_pskip=1 / chroma_qp_offset=0 / threads=3 / lookahead_threads=1 / sliced_threads=0 / nr=0 / decimate=1 / interlaced=0 / bluray_compat=0 / constrained_intra=0 / bframes=3 / b_pyramid=2 / b_adapt=1 / b_bias=0 / direct=1 / weightb=1 / open_gop=0 / weightp=1 / keyint=250 / keyint_min=25 / scenecut=40 / intra_refresh=0 / rc_lookahead=10 / rc=crf / mbtree=1 / crf=27.0 / qcomp=0.60 / qpmin=0 / qpmax=69 / qpstep=4 / vbv_maxrate=20000 / vbv_bufsize=25000 / crf_max=0.0 / nal_hrd=none / filler=0 / ip_ratio=1.40 / aq=1:1.00
Цветовой диапазон : Limited
Основные цвета : BT.709
Характеристики трансфера : BT.709
Коэффициенты матрицы : BT.709

Аудио
Идентификатор : 2
Формат : AAC
Формат/Информация : Advanced Audio Codec
Профиль формата : LC
Идентификатор кодека : 40
Продолжительность : 18 м. 37 с.
Вид битрейта : Переменный
Битрейт : 160 Кбит/сек
Каналы : 2 канала
Расположение каналов : Front: L R
Частота : 48,0 КГц
Частота кадров : 46,875 кадров/сек (1024 SPF)
Метод сжатия : С потерями
Размер потока : 21,3 Мбайт (12%)
Заголовок : Stereo / Stereo
Язык : English
Default : Да
AlternateGroup/String : 1
Качество видео: HDRip
Формат видео: MP4
Видео: AVC 1920x1080 25fps [Stream 00] Bit rate : 1197 Kbps
Аудио: AAC 48000Hz stereo 160kbps [Stream 01] Bit rate : 160 Kbps
Трекер:  [ 11-Июл-2017 01:00 ]

Размер .torrent файла 14 KB


Размер: 182 MB
Хэш (hash) релиза: ab14e980b3d388662ecba967b7adebe6dd6ffcff
Подписка на обновления:

Еще никто не оставлял запись к записи скачать торрент Всасывание неэрегированного члена . Будь первым!

!Обратная связь
//main.js show_panel