Статистика раздачи
Размер:  343 MB   |    Зарегистрирован:  3 месяца 13 дней   |    .torrent скачан:  928 раз   |   

Пиры будут получены при скачивании

 

Скачать порно Тётя Вера с мужем через торрент бесплатно :: UnionPron.org

 
 
Автор Сообщение

Sakura

avatar Sakura


Тётя Вера с мужем
Год выпуска: 2008 г.
Жанр: Amateur, All sex, Oral, Homemade
Продолжительность: 00:20:37

Описание: Тётя Вера со своим мужем, вспоминает молодость!

Качество: CamRip
Формат: AVI

Видео: XviD, 720 x 576 (5:4), 30.000 fps, ~2055 kb/s
Аудио: MP3, 2 Channels, 48.0 kHz, 256 kb/s
General
Complete name : \Тётя Вера с мужем.avi
Format : AVI
Format/Info : Audio Video Interleave
File size : 343 MiB
Duration : 20 min 36 s
Overall bit rate : 2 325 kb/s
Writing application : Lavf56.40.101

Video
ID : 0
Format : xvid
Codec ID : xvid
Duration : 20 min 36 s
Bit rate : 2 055 kb/s
Width : 720 pixels
Height : 576 pixels
Display aspect ratio : 5:4
Frame rate : 30.000 FPS
Scan type : Progressive
Bits/(Pixel*Frame) : 0.165
Stream size : 303 MiB (88%)

Audio
ID : 1
Format : MPEG Audio
Format version : Version 1
Format profile : Layer 3
Mode : Joint stereo
Mode extension : MS Stereo
Codec ID : 55
Codec ID/Hint : MP3
Duration : 20 min 36 s
Bit rate mode : Constant
Bit rate : 256 kb/s
Channel(s) : 2 channels
Sampling rate : 48.0 kHz
Compression mode : Lossy
Stream size : 37.7 MiB (11%)
Alignment : Aligned on interleaves
Interleave, duration : 24 ms (0.72 video frame)
Writing library : LAMEЄЄЄ
Трекер:  [ 09-Янв-2017 16:00 ]

Размер .torrent файла 14 KB


Размер: 343 MB
Хэш (hash) релиза: 626fb906bcc6384dceccc49b31fe80f0e1fb8536
Подписка на обновления:

Еще никто не оставлял запись к записи скачать торрент Тётя Вера с мужем . Будь первым!

!Обратная связь
//main.js show_panel