Статистика раздачи
Размер:  2 GB   |    Зарегистрирован:  12 дней   |    .torrent скачан:  5 раз   |   

Пиры будут получены при скачивании

 

Скачать порно The Ultimate Cumshot Compilation Part1 720p через торрент бесплатно :: UnionPron.org

 
 
Автор Сообщение

Sakura

avatar Sakura


The Ultimate Cumshot Compilation Part1 720p

Жанр: Compilation Swallow Cumshot Facial
Продолжительность: 01:56:07

Описание: Homemade Cumshot Compilation part 1, Two hours, Edited on Linux by Yam1092

Качество видео: WEB-DL
Формат видео: MP4
Видео: AVC Video 1280x720 25.00fps
Аудио: AAC stereo Variable
The Ultimate Cumshot Compilation Part1 720p/The Ultimate Cumshot Compilation Part1 720p.mp4
Format : MPEG-4
Format profile : Base Media / Version 2
Codec ID : mp42 (mp42/isom/avc1)
File size : 2.19 GiB
Duration : 1h 56mn
Overall bit rate mode : Variable
Overall bit rate : 2 704 Kbps
Encoded date : UTC 2014-04-05 17:27:44
Tagged date : UTC 2014-04-05 20:50:29
Writing application : HandBrake 0.9.9 2013052900

Video
ID : 1
Format : AVC
Format/Info : Advanced Video Codec
Format profile : Main@L4
Format settings, CABAC : Yes
Format settings, ReFrames : 4 frames
Codec ID : avc1
Codec ID/Info : Advanced Video Coding
Duration : 1h 56mn
Bit rate : 2 541 Kbps
Width : 1 280 pixels
Height : 720 pixels
Display aspect ratio : 16:9
Frame rate mode : Constant
Frame rate : 25.000 fps
Color space : YUV
Chroma subsampling : 4:2:0
Bit depth : 8 bits
Scan type : Progressive
Bits/(Pixel*Frame) : 0.110
Stream size : 2.06 GiB (94%)
Writing library : x264 core 130 r2273 b3065e6
Encoding settings : cabac=1 / ref=1 / deblock=1:0:0 / analyse=0x1:0x111 / me=hex / subme=2 / psy=1 / psy_rd=1.00:0.00 / mixed_ref=0 / me_range=16 / chroma_me=1 / trellis=0 / 8x8dct=0 / cqm=0 / deadzone=21,11 / fast_pskip=1 / chroma_qp_offset=0 / threads=3 / lookahead_threads=1 / sliced_threads=0 / nr=0 / decimate=1 / interlaced=0 / bluray_compat=0 / constrained_intra=0 / bframes=3 / b_pyramid=2 / b_adapt=1 / b_bias=0 / direct=1 / weightb=1 / open_gop=0 / weightp=1 / keyint=250 / keyint_min=25 / scenecut=40 / intra_refresh=0 / rc_lookahead=10 / rc=crf / mbtree=1 / crf=20.0 / qcomp=0.60 / qpmin=0 / qpmax=69 / qpstep=4 / vbv_maxrate=20000 / vbv_bufsize=25000 / crf_max=0.0 / nal_hrd=none / ip_ratio=1.40 / aq=1:1.00
Encoded date : UTC 2014-04-05 17:27:44
Tagged date : UTC 2014-04-05 20:50:29
Color range : Limited
Color primaries : BT.709
Transfer characteristics : BT.709
Matrix coefficients : BT.709

Audio
ID : 2
Format : AAC
Format/Info : Advanced Audio Codec
Format profile : LC
Codec ID : 40
Duration : 1h 56mn
Bit rate mode : Variable
Bit rate : 159 Kbps
Maximum bit rate : 384 Kbps
Channel(s) : 2 channels
Channel positions : Front: L R
Sampling rate : 44.1 KHz
Frame rate : 43.066 fps (1024 spf)
Compression mode : Lossy
Stream size : 132 MiB (6%)
Title : Stereo
Language : English
Encoded date : UTC 2014-04-05 17:27:44
Tagged date : UTC 2014-04-05 20:50:28
Трекер:  [ 07-Янв-2017 20:30 ]

Размер .torrent файла 44 KB


Размер: 2 GB
Хэш (hash) релиза: d230d38071db8ead159acacc98e49b12cc8d9707
Подписка на обновления:

Еще никто не оставлял запись к записи скачать торрент The Ultimate Cumshot Compilation Part1 720p . Будь первым!

!Обратная связь
//main.js show_panel