Статистика раздачи
Размер:  2 GB   |    Зарегистрирован:  6 месяцев   |    .torrent скачан:  11 раз   |   

Пиры будут получены при скачивании

 

Скачать порно My Private Tutor / Мой личный репетитор через торрент бесплатно :: UnionPron.org

 
 
Автор Сообщение

Sakura

avatar Sakura


My Private Tutor • Мой личный репетитор
Год производства: 2012 г.
Страна: United States
Жанр: Feature, All Sex, Couples, College
Продолжительность: 01:46:17

Студия: Digital Playground
Режиссер: Robby D.

Язык: Английский
В ролях: Abigaile Johnson, Brooklyn Lee, Jesse Jane® & Pressley Carter | Bill Bailey, Erik Everhard & Manuel Ferrara

Описание: As a college tutor Jesse Jane® has put her porno past behind her. But when student Erik Everhard finds out about Jesse''s former X-rated adventures he and his buddy Bill Bailey want to sample the hardcore moves that made her a sex symbol. Roommate Manuel Ferrara thinks he has his blue movie techniques down and schools exchange student Abigaile Johnson in the ways of pleasures. When porn starlet Brooklyn Lee comes to town she flips the script on Manuel and shows him how to properly do some dirty fucking. On the side Erik talks his girlfriend Pressley Carter into making some camera phone porn. Jesse teaches the guys how to please a woman in this incredibly erotic movie!

Меню: Есть
Доп. материалы и бонусы:
* Interactive Menus
* Chapter Selection
* Behind The Scene
* Photo Gallery
* Trailers

Тип HD видео: 1080p
Качество видео: Blu-Ray
Формат видео: Blu-Ray Video
Контейнер: BDMV
Видео кодек: H.264/AVC
Аудио кодек: AC3
Видео: MPEG-4 AVC Video / ~20100 kbps / 1920x1080p / 23,976 fps / 16:9
Аудио: Dolby Digital Audio 5.1 / 48000 Hz / 448 kbps
General
ID : 0 (0x0)
Complete name : /My Private Tutor XXX BD25-Untouched - NoName [pornolab.net]/BDMV/STREAM/00002.m2ts
Format : BDAV
Format/Info : Blu-ray Video
File size : 15.9 GiB
Duration : 1h 46mn
Overall bit rate mode : Variable
Overall bit rate : 21.4 Mbps
Maximum Overall bit rate : 48.0 Mbps

Video
ID : 4113 (0x1011)
Menu ID : 1 (0x1)
Format : AVC
Format/Info : Advanced Video Codec
Format profile : High@L4.1
Format settings, CABAC : Yes
Format settings, ReFrames : 3 frames
Codec ID : 27
Duration : 1h 46mn
Bit rate mode : Variable
Bit rate : 20.1 Mbps
Maximum bit rate : 25.0 Mbps
Width : 1 920 pixels
Height : 1 080 pixels
Display aspect ratio : 16:9
Frame rate : 23.976 fps
Standard : NTSC
Color space : YUV
Chroma subsampling : 4:2:0
Bit depth : 8 bits
Scan type : Progressive
Bits/(Pixel*Frame) : 0.405
Stream size : 14.9 GiB (94%)
Color primaries : BT.709
Transfer characteristics : BT.709
Matrix coefficients : BT.709

Audio
ID : 4352 (0x1100)
Menu ID : 1 (0x1)
Format : AC-3
Format/Info : Audio Coding 3
Mode extension : CM (complete main)
Format settings, Endianness : Big
Codec ID : 129
Duration : 1h 46mn
Bit rate mode : Constant
Bit rate : 448 Kbps
Channel(s) : 6 channels
Channel positions : Front: L C R, Side: L R, LFE
Sampling rate : 48.0 KHz
Bit depth : 16 bits
Compression mode : Lossy
Stream size : 341 MiB (2%)
[url=...7017291] [/url]
Трекер:  [ 04-Янв-2017 23:00 ]

Размер .torrent файла 209 KB


Размер: 2 GB
Хэш (hash) релиза: 6e9d71cd6319b4b6492aab9f6444af037dce4246
Подписка на обновления:

Еще никто не оставлял запись к записи скачать торрент My Private Tutor Мой личный репетитор . Будь первым!

!Обратная связь
//main.js show_panel