Статистика раздачи
Размер:  2 GB   |    Зарегистрирован:  2 месяца 24 дня   |    .torrent скачан:  12 раз   |   

Пиры будут получены при скачивании

 

Скачать порно Booty Call / Зов плоти через торрент бесплатно :: UnionPron.org

 
 
Автор Сообщение

Sakura

avatar Sakura


Booty Call • Зов плоти
Год производства: 2012 г.
Страна: United States
Жанр: Feature, All Sex, Couples, Anal
Продолжительность: 01:31:53

Студия: Digital Playground
Режиссер: Robby D.

Язык: Английский
В ролях: Jessie Rogers, Kayden Kross, Lia Lor, Lily LeBeau | Bill Bailey, Erik Everhard & Manuel Ferrara

Описание: Loyal girlfriend Kayden Kross receives a disturbing call from her boyfriend''s cell phone. Sounds of fierce fucking can be heard on the other line leading her to believe that her man, Manuel Ferrara, is cheating on her! Leaving roommate Lia Lor behind, Kayden heads out to confront Manuel. Instead, she runs into his roommate, Bill Bailey, who just filled Lily LaBeau''s love cave with his rock hard man meat. Where is Manuel? Out with another girl? Bill offers her a revenge plan; and his hard cock. While Kayden is getting her sweet sugar hole filled, Manuel stops by her house and has a hot and horny sex session with Lia. Continuing her search, Kayden walks in on Erik Everhard receiving a hardcore rubdown from masseuse Jessie Rogers; who makes sure he has a happy ending. Will Kayden ever make-up with Manuel or will she make another Booty Call?

Меню: Есть
Доп. материалы и бонусы:
* Interactive Menus
* Chapter Selection
* Behind The Scene
* Photo Gallery
* Trailers

Тип HD видео: 1080p
Качество видео: Blu-Ray
Формат видео: Blu-Ray Video
Контейнер: BDMV
Видео кодек: H.264/AVC
Аудио кодек: AC3
Видео: MPEG-4 AVC Video / ~20100 kbps / 1920x1080p / 23,976 fps / 16:9
Аудио: Dolby Digital Audio 5.1 / 48000 Hz / 448 kbps
General
ID : 0 (0x0)
Complete name : /Booty Call XXX BD25-Untouched - NoName [pornolab.net]/BDMV/STREAM/00002.m2ts
Format : BDAV
Format/Info : Blu-ray Video
File size : 13.7 GiB
Duration : 1h 31mn
Overall bit rate mode : Variable
Overall bit rate : 21.4 Mbps
Maximum Overall bit rate : 48.0 Mbps

Video
ID : 4113 (0x1011)
Menu ID : 1 (0x1)
Format : AVC
Format/Info : Advanced Video Codec
Format profile : High@L4.1
Format settings, CABAC : Yes
Format settings, ReFrames : 3 frames
Codec ID : 27
Duration : 1h 31mn
Bit rate mode : Variable
Bit rate : 20.1 Mbps
Maximum bit rate : 25.0 Mbps
Width : 1 920 pixels
Height : 1 080 pixels
Display aspect ratio : 16:9
Frame rate : 23.976 fps
Standard : NTSC
Color space : YUV
Chroma subsampling : 4:2:0
Bit depth : 8 bits
Scan type : Progressive
Bits/(Pixel*Frame) : 0.405
Stream size : 12.9 GiB (94%)
Color primaries : BT.709
Transfer characteristics : BT.709
Matrix coefficients : BT.709

Audio
ID : 4352 (0x1100)
Menu ID : 1 (0x1)
Format : AC-3
Format/Info : Audio Coding 3
Mode extension : CM (complete main)
Format settings, Endianness : Big
Codec ID : 129
Duration : 1h 31mn
Bit rate mode : Constant
Bit rate : 448 Kbps
Channel(s) : 6 channels
Channel positions : Front: L C R, Side: L R, LFE
Sampling rate : 48.0 KHz
Bit depth : 16 bits
Compression mode : Lossy
Stream size : 294 MiB (2%)
[url=...7017291] [/url]
Трекер:  [ 04-Янв-2017 00:00 ]

Размер .torrent файла 184 KB


Размер: 2 GB
Хэш (hash) релиза: 307100df761d71e151346f52d46a4f4817567fab
Подписка на обновления:

Еще никто не оставлял запись к записи скачать торрент Booty Call Зов плоти . Будь первым!

!Обратная связь
//main.js show_panel