Статистика раздачи
Размер:  2 GB   |    Зарегистрирован:  11 месяцев   |    .torrent скачан:  20 раз   |   

Пиры будут получены при скачивании

 

Скачать порно Buy A Bride / Купить невесту через торрент бесплатно :: UnionPron.org

 
 
Автор Сообщение

Sakura

avatar Sakura


Buy A Bride • Купить невесту
Год производства: 2010 г.
Страна: United States
Жанр: Feature, All Sex, Couples, Weddings
Продолжительность: 02:10:32

Студия: Digital Playground
Режиссер: Robby D.

Язык: Английский
В ролях: Angel Dark, Haley Cummings, Lou Charmelle & Nikki Benz | Manuel Ferrara, Mick Blue, Scott Nails & Tommy Gunn

Описание: Nikki Benz is Maria, a naughty maid taking care of the lonely bachelor, Tommy Gunn. They live secretly fantasizing about each other. Tommy''s friend turns him on to an internet site where he can buy a sexy European bride, Angel Dark, to worship and satisfy his every need. But when the beautiful girl he orders turns into a salacious sex machine fucking everyone she can, Maria exposes Angel for the whore she is, saving Tommy from marrying the wrong woman. Tommy shows naughty Nikki his horny gratitude by fucking her into ecstasy.

Меню: Есть
Доп. материалы и бонусы:
* Interactive Menus
* Chapter Selection
* Behind The Scene
* Photo Gallery
* Trailers

Тип HD видео: 1080p
Качество видео: Blu-Ray
Формат видео: Blu-Ray Video
Контейнер: BDMV
Видео кодек: H.264/AVC
Аудио кодек: AC3
Видео: MPEG-4 AVC Video / ~17100 kbps / 1920x1080p / 23,976 fps / 16:9
Аудио: Dolby Digital Audio 5.1 / 48000 Hz / 640 kbps
General
ID : 0 (0x0)
Complete name : /BDMV/STREAM/00002.m2ts
Format : BDAV
Format/Info : Blu-ray Video
File size : 16.9 GiB
Duration : 2h 10mn
Overall bit rate mode : Variable
Overall bit rate : 18.5 Mbps
Maximum Overall bit rate : 48.0 Mbps

Video
ID : 4113 (0x1011)
Menu ID : 1 (0x1)
Format : AVC
Format/Info : Advanced Video Codec
Format profile : High@L4.1
Format settings, CABAC : Yes
Format settings, ReFrames : 4 frames
Codec ID : 27
Duration : 2h 10mn
Bit rate mode : Variable
Bit rate : 17.1 Mbps
Maximum bit rate : 25.0 Mbps
Width : 1 920 pixels
Height : 1 080 pixels
Display aspect ratio : 16:9
Frame rate : 23.976 fps
Standard : NTSC
Color space : YUV
Chroma subsampling : 4:2:0
Bit depth : 8 bits
Scan type : Progressive
Bits/(Pixel*Frame) : 0.345
Stream size : 15.6 GiB (93%)
Color primaries : BT.709
Transfer characteristics : BT.709
Matrix coefficients : BT.709

Audio
ID : 4352 (0x1100)
Menu ID : 1 (0x1)
Format : AC-3
Format/Info : Audio Coding 3
Mode extension : CM (complete main)
Format settings, Endianness : Big
Codec ID : 129
Duration : 2h 10mn
Bit rate mode : Constant
Bit rate : 640 Kbps
Channel(s) : 6 channels
Channel positions : Front: L C R, Side: L R, LFE
Sampling rate : 48.0 KHz
Bit depth : 16 bits
Compression mode : Lossy
Stream size : 598 MiB (3%)
[url=...7017291] [/url]
Трекер:  [ 03-Янв-2017 02:30 ]

Размер .torrent файла 217 KB


Размер: 2 GB
Хэш (hash) релиза: 458b94ac692f54d13ea7e0abbc74e3f540a3a173
Подписка на обновления:

Еще никто не оставлял запись к записи скачать торрент Buy A Bride Купить невесту . Будь первым!

!Обратная связь
//main.js show_panel