Статистика раздачи
Размер:  2 GB   |    Зарегистрирован:  1 месяц 24 дня   |    .torrent скачан:  9 раз   |   

Пиры будут получены при скачивании

 

Скачать порно Halfway Home / На полпути домой через торрент бесплатно :: UnionPron.org

 
 
Автор Сообщение

Sakura

avatar Sakura


Halfway Home • На полпути домой
Год производства: 2011 г.
Страна: United States
Жанр: Feature, All Sex, Couples
Продолжительность: 01:32:55

Студия: Digital Playground
Режиссер: Robby D.

Язык: Английский
В ролях: Adriana Luna, BiBi Jones™, Laura Crystal & Veronica Avluv | Erik Everhard, Manuel Ferrara, Marco Banderas & Tommy Gunn

Описание: After doing time for a heist gone wrong the beautiful BiBi Jones™ gets a shot at redemption. All she has to do is hold out in a Halfway House full of lustful women. But when her past comes back to haunt her she has to fight her old instincts or give in to temptation.

Меню: Есть
Доп. материалы и бонусы:
* Interactive Menus
* Chapter Selection
* Behind The Scene
* Photo Gallery
* Trailers

Тип HD видео: 1080p
Качество видео: Blu-Ray
Формат видео: Blu-Ray Video
Контейнер: BDMV
Видео кодек: H.264/AVC
Аудио кодек: AC3
Видео: MPEG-4 AVC Video / ~20000 kbps / 1920x1080p / 23,976 fps / 16:9
Аудио: Dolby Digital Audio 5.1 / 48000 Hz / 448 kbps
General
ID : 0 (0x0)
Complete name : BDMV/STREAM/00002.m2ts
Format : BDAV
Format/Info : Blu-ray Video
File size : 13.8 GiB
Duration : 1h 32mn
Overall bit rate mode : Variable
Overall bit rate : 21.3 Mbps
Maximum Overall bit rate : 48.0 Mbps

Video
ID : 4113 (0x1011)
Menu ID : 1 (0x1)
Format : AVC
Format/Info : Advanced Video Codec
Format profile : High@L4.1
Format settings, CABAC : Yes
Format settings, ReFrames : 3 frames
Codec ID : 27
Duration : 1h 32mn
Bit rate mode : Variable
Bit rate : 20.0 Mbps
Maximum bit rate : 25.0 Mbps
Width : 1 920 pixels
Height : 1 080 pixels
Display aspect ratio : 16:9
Frame rate : 23.976 fps
Standard : NTSC
Color space : YUV
Chroma subsampling : 4:2:0
Bit depth : 8 bits
Scan type : Progressive
Bits/(Pixel*Frame) : 0.403
Stream size : 13.0 GiB (94%)
Color primaries : BT.709
Transfer characteristics : BT.709
Matrix coefficients : BT.709

Audio
ID : 4352 (0x1100)
Menu ID : 1 (0x1)
Format : AC-3
Format/Info : Audio Coding 3
Mode extension : CM (complete main)
Format settings, Endianness : Big
Codec ID : 129
Duration : 1h 32mn
Bit rate mode : Constant
Bit rate : 448 Kbps
Channel(s) : 6 channels
Channel positions : Front: L C R, Side: L R, LFE
Sampling rate : 48.0 KHz
Bit depth : 16 bits
Compression mode : Lossy
Stream size : 298 MiB (2%)
[url=...7017291] [/url]
Трекер:  [ 03-Янв-2017 01:00 ]

Размер .torrent файла 181 KB


Размер: 2 GB
Хэш (hash) релиза: 7719716a7b5e47c967d5ca8eaaa3b51d724c6379
Подписка на обновления:

Еще никто не оставлял запись к записи скачать торрент Halfway Home На полпути домой . Будь первым!

!Обратная связь
//main.js show_panel