Статистика раздачи
Размер:  2 GB   |    Зарегистрирован:  1 месяц 21 день   |    .torrent скачан:  25 раз   |   

Пиры будут получены при скачивании

 

Скачать порно Naked and Betrayed / Предательский удар через торрент бесплатно :: UnionPron.org

 
 
Автор Сообщение

Sakura

avatar Sakura


Naked and Betrayed / Предательский удар
Год производства: 2004 г.
Страна: США
Жанр: Erotica, Crime, Thriller
Продолжительность: 01:21:30
Перевод: Профессиональный многоголосый

Режиссер: Woquini Adams
Студия: MRG Entertainment

В ролях:

Mandy Fisher ... Claire
August ... Crystal
Robert Baldwin ... Detective
Barrett Blade ... Cory
Tucker Cain ... Jason
Frank Harper ... Michael
Gina Ryder ... Stephanie
Julian Wells ... Talisa

Описание: Клер и Джейсон не хотели устраивать грандиозную свадебную церемонию. Они решили пригласить кое-кого из близких и в узком кругу друзей весело провести уикенд, наслаждаясь радостями, которые можно получить в уютном и роскошном частном загородном отеле. Джейсон все же не хотел отказываться от традиции и позвал приятелей на мальчишник. Первая часть разгульного мальчишника удалась на славу: стриптизерша Кристал разожгла кровь и плоть всех присутствовавших. Вторая же часть мальчишника явно не была запланирована: Джейсон проснулся и увидел рядом с собой бездыханное тело Кристал. Кто убил девушку, когда это произошло, чем вообще закончился мальчишник - ничего Джейсон не мог вспомнить, а напрягать память стоило. Он и его товарищи считались теперь подозреваемыми в убийстве..

Качество видео: IPTVRip
Формат видео: MPEG
Видео кодек: MPEG2
Аудио кодек: MPEG Audio
Видео: 704x576 (4:3) 25.00fps 15000kbps [VBR] 2.15 GiB
Аудио: MPEG Audio 48000Hz stereo 192kbps 112 MiB
Complete name : Naked.And.Betrayed.tvrip.mpg
Format : MPEG-PS
File size : 2.30 GiB
Duration : 1h 21mn
Overall bit rate : 4 046 Kbps
Writing library : (c) 1998-2010 Womble Multimedia, Inc. / MPEG Video Wizard DVD 5.0.0.114 (01/2010) / Jul 5 2010

Video
ID : 224 (0xE0)
Format : MPEG Video
Format version : Version 2
Format profile : Main@Main
Format settings, BVOP : Yes
Format settings, Matrix : Default
Format settings, GOP : M=3, N=12
Duration : 1h 21mn
Bit rate mode : Variable
Bit rate : 3 774 Kbps
Nominal bit rate : 15.0 Mbps
Width : 704 pixels
Height : 576 pixels
Display aspect ratio : 4:3
Frame rate : 25.000 fps
Standard : PAL
Color space : YUV
Chroma subsampling : 4:2:0
Bit depth : 8 bits
Scan type : Progressive
Scan order : Top Field First
Bits/(Pixel*Frame) : 0.372
Stream size : 2.15 GiB (93%)
Writing library : (c) 1998-2010 Womble Multimedia, Inc. / MPEG Video Wizard DVD 5.0.0.114 (01/2010) / Jul 5 2010

Audio
ID : 192 (0xC0)
Format : MPEG Audio
Format version : Version 1
Format profile : Layer 2
Duration : 1h 21mn
Bit rate mode : Constant
Bit rate : 192 Kbps
Channel(s) : 2 channels
Sampling rate : 48.0 KHz
Stream size : 112 MiB (5%)
Трекер:  [ 03-Янв-2017 01:00 ]

Размер .torrent файла 12 KB


Размер: 2 GB
Хэш (hash) релиза: c74937de1228d6561d7db1f0f259c38701866ce3
Подписка на обновления:

Еще никто не оставлял запись к записи скачать торрент Naked and Betrayed Предательский удар . Будь первым!

!Обратная связь
//main.js show_panel