Статистика раздачи
Размер:  2 GB   |    Зарегистрирован:  9 месяцев   |    .torrent скачан:  18 раз   |   

Пиры будут получены при скачивании

 

Скачать порно Escaladies 2 / Эскаледи 2 через торрент бесплатно :: UnionPron.org

 
 
Автор Сообщение

Sakura

avatar Sakura


Escaladies 2 • Эскаледи 2
Год производства: 2011 г.
Страна: United States
Жанр: Feature, All Sex, Couples, Latin
Продолжительность: 02:03:46

Студия: Digital Playground
Режиссер: Robby D.

Язык: Английский
В ролях: Ann Marie Rios, Ariella Ferrera, Charles Dera & Selena Rose™ | Erik Everhard, James Deen, Marco Banderas & Marco Rivera

Описание: The naughty Latina sisters are doing their dirty deeds again, but this time, the lusty battle to control Selena''s desires blazes to a sultry peak. Pristine Ann Marie Rios and slutty Ariella Ferrera vie for their baby sister, Selena, wanting to turn her into a virginal angel or a wild sex demon. Tempted by both sides of her erupting passions, Selena indulges in whorish acts in the shadows of Ariella''s twisted lifestyle. Ann Marie takes her husband by the balls, giving him the final, nasty ultimatum before grabbing back control of her own tawdry desires.

Меню: Есть
Доп. материалы и бонусы:
* Interactive Menus
* Chapter Selection
* Behind The Scene
* Photo Gallery
* Trailers

Тип HD видео: 1080p
Качество видео: Blu-Ray
Формат видео: Blu-Ray Video
Контейнер: BDMV
Видео кодек: H.264/AVC
Аудио кодек: AC3
Видео: MPEG-4 AVC Video / ~16100 kbps / 1920x1080p / 23,976 fps / 16:9
Аудио: Dolby Digital Audio 5.1 / 48000 Hz / 640 kbps
General
ID : 0 (0x0)
Complete name : /BDMV/STREAM/00002.m2ts
Format : BDAV
Format/Info : Blu-ray Video
File size : 15.1 GiB
Duration : 2h 3mn
Overall bit rate mode : Variable
Overall bit rate : 17.5 Mbps
Maximum Overall bit rate : 48.0 Mbps
Video
ID : 4113 (0x1011)
Menu ID : 1 (0x1)
Format : AVC
Format/Info : Advanced Video Codec
Format profile : High@L4.1
Format settings, CABAC : Yes
Format settings, ReFrames : 4 frames
Codec ID : 27
Duration : 2h 3mn
Bit rate mode : Variable
Bit rate : 16.1 Mbps
Maximum bit rate : 27.0 Mbps
Width : 1 920 pixels
Height : 1 080 pixels
Display aspect ratio : 16:9
Frame rate : 23.976 fps
Standard : NTSC
Color space : YUV
Chroma subsampling : 4:2:0
Bit depth : 8 bits
Scan type : Progressive
Bits/(Pixel*Frame) : 0.324
Stream size : 13.9 GiB (92%)
Color primaries : BT.709
Transfer characteristics : BT.709
Matrix coefficients : BT.709
Audio
ID : 4352 (0x1100)
Menu ID : 1 (0x1)
Format : AC-3
Format/Info : Audio Coding 3
Mode extension : CM (complete main)
Format settings, Endianness : Big
Codec ID : 129
Duration : 2h 3mn
Bit rate mode : Constant
Bit rate : 640 Kbps
Channel(s) : 6 channels
Channel positions : Front: L C R, Side: L R, LFE
Sampling rate : 48.0 KHz
Bit depth : 16 bits
Compression mode : Lossy
Stream size : 567 MiB (4%)
[url=...7017291] [/url]
Трекер:  [ 02-Янв-2017 20:30 ]

Размер .torrent файла 196 KB


Размер: 2 GB
Хэш (hash) релиза: 9929b4c560e0417756e1e45965ef70f5614351e4
Подписка на обновления:

Еще никто не оставлял запись к записи скачать торрент Escaladies 2 Эскаледи 2 . Будь первым!

!Обратная связь
//main.js show_panel