Статистика раздачи
Размер:  2 GB   |    Зарегистрирован:  11 месяцев   |    .torrent скачан:  11 раз   |   

Пиры будут получены при скачивании

 

Скачать порно Escaladies / Эскаледи через торрент бесплатно :: UnionPron.org

 
 
Автор Сообщение

Sakura

avatar Sakura


Escaladies • Эскаледи
Год производства: 2011 г.
Страна: United States
Жанр: Feature, All Sex, Couples, Latin
Продолжительность: 02:06:21

Студия: Digital Playground
Режиссер: Robby D.

Язык: Английский
В ролях: Ann Marie Rios, Ariella Ferrera, Charley Chase, Selena Rose™ & Vicki Chase | Marco Banderas, Marco Rivera, Ramon Nomar & Toni Ribas

Описание: Three beautiful sisters explore their innermost sexual desires and deepest, naughtiest secrets. In the shadows of a troubled family, Ann Marie Rios, the sexy middle sister controls her wide impulses, insisting her little sister Selena, suppress her own curious desires as well. Ariella is the slutty older sister living her lusty fantasies to the extreme, constantly engaged in wildly sinful exploits, and ready to expose Selena to her delicious world of decadence. Selena must make a choice between innocent virtue and passionate need, knowing that what she wants will lead her into horny temptation.

Меню: Есть
Доп. материалы и бонусы:
* Interactive Menus
* Chapter Selection
* Behind The Scene
* Photo Gallery
* Trailers

Тип HD видео: 1080p
Качество видео: Blu-Ray
Формат видео: Blu-Ray Video
Контейнер: BDMV
Видео кодек: H.264/AVC
Аудио кодек: AC3
Видео: MPEG-4 AVC Video / ~14600 kbps / 1920x1080p / 23,976 fps / 16:9
Аудио: Dolby Digital Audio 5.1 / 48000 Hz / 640 kbps
General
ID : 0 (0x0)
Complete name : /BDMV/STREAM/00002.m2ts
Format : BDAV
Format/Info : Blu-ray Video
File size : 14.0 GiB
Duration : 2h 6mn
Overall bit rate mode : Variable
Overall bit rate : 15.8 Mbps
Maximum Overall bit rate : 48.0 Mbps
Video
ID : 4113 (0x1011)
Menu ID : 1 (0x1)
Format : AVC
Format/Info : Advanced Video Codec
Format profile : High@L4.1
Format settings, CABAC : Yes
Format settings, ReFrames : 4 frames
Codec ID : 27
Duration : 2h 6mn
Bit rate mode : Variable
Bit rate : 14.6 Mbps
Maximum bit rate : 25.0 Mbps
Width : 1 920 pixels
Height : 1 080 pixels
Display aspect ratio : 16:9
Frame rate : 23.976 fps
Standard : NTSC
Color space : YUV
Chroma subsampling : 4:2:0
Bit depth : 8 bits
Scan type : Progressive
Bits/(Pixel*Frame) : 0.293
Stream size : 12.9 GiB (92%)
Color primaries : BT.709
Transfer characteristics : BT.709
Matrix coefficients : BT.709
Audio
ID : 4352 (0x1100)
Menu ID : 1 (0x1)
Format : AC-3
Format/Info : Audio Coding 3
Mode extension : CM (complete main)
Format settings, Endianness : Big
Codec ID : 129
Duration : 2h 6mn
Bit rate mode : Constant
Bit rate : 640 Kbps
Channel(s) : 6 channels
Channel positions : Front: L C R, Side: L R, LFE
Sampling rate : 48.0 KHz
Bit depth : 16 bits
Compression mode : Lossy
Stream size : 578 MiB (4%)
[url=...7017291] [/url]
Трекер:  [ 02-Янв-2017 19:30 ]

Размер .torrent файла 190 KB


Размер: 2 GB
Хэш (hash) релиза: 8e184b9d47f18358d481931d42febc5a3024505d
Подписка на обновления:

Еще никто не оставлял запись к записи скачать торрент Escaladies Эскаледи . Будь первым!

!Обратная связь
//main.js show_panel