Статистика раздачи
Размер:  323 MB   |    Зарегистрирован:  1 год   |    .torrent скачан:  142 раза   |   

Пиры будут получены при скачивании

 

Скачать порно Konfetka - XHamster.com через торрент бесплатно :: UnionPron.org

 
 
Автор Сообщение

Sakura

avatar Sakura


Konfetka - XHamster.com

Год производства: 2013-2016.

Описание: Питерская Конфетка с атлетичной фигурой любит секс, природу и спорт.
Доп. информация: Скорее всего в видеофайле FemaleMuscleFuck другая девушка, но так как видео с того же аккаунта, я его оставляю.
Complete name : F:\Konfetka - XHamster.com\Видео\anal sex.flv
Format : Flash Video
File size : 21.3 MiB
Duration : 5mn 14s
Overall bit rate : 568 Kbps
Tagged date : UTC 2014-11-09 09:37:39
Tagging application : flvtool++ (Facebook, Motion project, dweatherford)

Video
Format : AVC
Format/Info : Advanced Video Codec
Format profile : Baseline@L3.1
Format settings, CABAC : No
Format settings, ReFrames : 2 frames
Codec ID : 7
Duration : 5mn 14s
Bit rate : 512 Kbps
Width : 360 pixels
Height : 240 pixels
Display aspect ratio : 3:2
Frame rate mode : Constant
Frame rate : 14.518 fps
Color space : YUV
Chroma subsampling : 4:2:0
Bit depth : 8 bits
Scan type : Progressive
Bits/(Pixel*Frame) : 0.408
Stream size : 19.2 MiB (90%)
Writing library : x264 core 125

Audio
Format : AAC
Format/Info : Advanced Audio Codec
Format profile : LC
Codec ID : 10
Duration : 5mn 13s
Bit rate : 48.6 Kbps
Channel(s) : 2 channels
Channel positions : Front: L R
Sampling rate : 44.1 KHz
Compression mode : Lossy
Stream size : 1.82 MiB (9%)

Complete name : F:\Konfetka - XHamster.com\Видео\FemaleMuscleFuck.flv
Format : Flash Video
File size : 10.7 MiB
Duration : 3mn 31s
Overall bit rate : 427 Kbps
Tagged date : UTC 2016-04-28 22:19:49
Tagging application : flvtool++ (Facebook, Motion project, dweatherford)

Video
Format : AVC
Format/Info : Advanced Video Codec
Format profile : Baseline@L3.1
Format settings, CABAC : No
Format settings, ReFrames : 3 frames
Codec ID : 7
Duration : 3mn 31s
Bit rate : 362 Kbps
Width : 320 pixels
Height : 240 pixels
Display aspect ratio : 4:3
Frame rate mode : Constant
Frame rate : 24.000 fps
Color space : YUV
Chroma subsampling : 4:2:0
Bit depth : 8 bits
Scan type : Progressive
Bits/(Pixel*Frame) : 0.197
Stream size : 9.11 MiB (85%)
Writing library : x264 core 144 r2533 c8a773e

Audio
Format : AAC
Format/Info : Advanced Audio Codec
Format profile : LC
Codec ID : 10
Duration : 3mn 31s
Bit rate : 56.7 Kbps
Channel(s) : 2 channels
Channel positions : Front: L R
Sampling rate : 44.1 KHz
Compression mode : Lossy
Stream size : 1.43 MiB (13%)

Complete name : F:\Konfetka - XHamster.com\Видео\I fuck in ass and cunt.flv
Format : Flash Video
File size : 37.1 MiB
Duration : 10mn 51s
Overall bit rate : 477 Kbps
Tagged date : UTC 2016-08-26 06:41:28
Tagging application : flvtool++ (Facebook, Motion project, dweatherford)

Video
Format : AVC
Format/Info : Advanced Video Codec
Format profile : High@L4.1
Format settings, CABAC : Yes
Format settings, ReFrames : 4 frames
Codec ID : 7
Duration : 10mn 51s
Bit rate : 412 Kbps
Width : 720 pixels
Height : 480 pixels
Display aspect ratio : 3:2
Frame rate mode : Constant
Frame rate : 24.000 fps
Standard : NTSC
Color space : YUV
Chroma subsampling : 4:2:0
Bit depth : 8 bits
Scan type : Progressive
Bits/(Pixel*Frame) : 0.050
Stream size : 32.0 MiB (86%)
Writing library : x264 core 125

Audio
Format : AAC
Format/Info : Advanced Audio Codec
Format profile : LC
Codec ID : 10
Duration : 10mn 51s
Bit rate : 56.7 Kbps
Channel(s) : 1 channel
Channel positions : Front: C
Sampling rate : 44.1 KHz
Compression mode : Lossy
Delay relative to video : 332ms
Stream size : 4.40 MiB (12%)

Complete name : F:\Konfetka - XHamster.com\Видео\I fucked doggy style.flv
Format : Flash Video
File size : 164 MiB
Duration : 10mn 48s
Overall bit rate : 2 119 Kbps
Tagged date : UTC 2014-02-01 00:46:43
Tagging application : flvtool++ (Facebook, Motion project, dweatherford)

Video
Format : AVC
Format/Info : Advanced Video Codec
Format profile : High@L3.1
Format settings, CABAC : Yes
Format settings, ReFrames : 4 frames
Codec ID : 7
Duration : 10mn 48s
Bit rate : 2 048 Kbps
Width : 1 280 pixels
Height : 720 pixels
Display aspect ratio : 16:9
Frame rate mode : Constant
Frame rate : 14.987 fps
Color space : YUV
Chroma subsampling : 4:2:0
Bit depth : 8 bits
Scan type : Progressive
Bits/(Pixel*Frame) : 0.148
Stream size : 159 MiB (97%)
Writing library : x264 core 125

Audio
Format : AAC
Format/Info : Advanced Audio Codec
Format profile : LC
Codec ID : 10
Duration : 10mn 48s
Bit rate : 59.7 Kbps
Channel(s) : 2 channels
Channel positions : Front: L R
Sampling rate : 44.1 KHz
Compression mode : Lossy
Stream size : 4.61 MiB (3%)

Complete name : F:\Konfetka - XHamster.com\Видео\slut in car.flv
Format : Flash Video
File size : 62.6 MiB
Duration : 4mn 44s
Overall bit rate : 1 847 Kbps
Tagged date : UTC 2016-11-13 12:41:41
Tagging application : flvtool++ (Facebook, Motion project, dweatherford)

Video
Format : AVC
Format/Info : Advanced Video Codec
Format profile : High@L4.1
Format settings, CABAC : Yes
Format settings, ReFrames : 4 frames
Codec ID : 7
Duration : 4mn 44s
Bit rate : 1 785 Kbps
Width : 1 280 pixels
Height : 720 pixels
Display aspect ratio : 16:9
Frame rate mode : Constant
Frame rate : 24.000 fps
Color space : YUV
Chroma subsampling : 4:2:0
Bit depth : 8 bits
Scan type : Progressive
Bits/(Pixel*Frame) : 0.081
Stream size : 60.5 MiB (97%)
Writing library : x264 core 144 r2533 c8a773e

Audio
Format : AAC
Format/Info : Advanced Audio Codec
Format profile : LC
Codec ID : 10
Duration : 4mn 44s
Bit rate : 56.4 Kbps
Channel(s) : 1 channel
Channel positions : Front: C
Sampling rate : 24.0 KHz
Compression mode : Lossy
Delay relative to video : 75ms
Stream size : 1.91 MiB (3%)
Трекер:  [ 05-Дек-2016 20:30 ]

Размер .torrent файла 19 KB


Размер: 323 MB
Хэш (hash) релиза: cf2a0f276622c7090c0e0d44e9b0452670e2c870
Подписка на обновления:

Еще никто не оставлял запись к записи скачать торрент Konfetka - XHamster.com . Будь первым!

!Обратная связь
//main.js show_panel