Статистика раздачи
Размер:  397 MB   |    Зарегистрирован:  7 месяцев   |    .torrent скачан:  15 раз   |   

Пиры будут получены при скачивании

 

Скачать порно Cherokee / Прекрати издеваться надо мной — лучше трахни мою маму через торрент бесплатно :: UnionPron.org

 
 
Автор Сообщение

Sakura

avatar Sakura


Stop Bullying Me and Fucking My Mom / Прекрати издеваться надо мной — лучше трахни мою маму

Страна: USA
Имя актрисы: Cherokee
Название ролика: Stop Bullying Me and Fucking My Mom

Год производства: 12 июня 2009
Жанр: big tits, brunette, facial, milf, bubble butt
Продолжительность: 00:24:46
Язык: Английский
В ролях: Cherokee, Chris Johnson

Описание на русском:

Очаровательная женщина Чероки живет со своим сыном по имени Кейран.
Над Кейраном постоянно издевается хулиган, живущий по соседству.
Чероки узнает об этом. Подобно всем матерям, она готова защищать своего сынулю любыми способами.
Чероки решает нанести визит хулигану и научить его хорошим манерам. В постели, разумеется.

Описание на английском:

Cherokee''s son Keiran is constantly being picked on by the neighborhood bully. Just like all mothers, Cherokee is very protective of her son and decides to pay a visit to the bully and teach him a very valuable lesson.

Исходник 1080p 2.1 Gb -- [url]...1114373[/url]
Другая раздача 720p 1.26 Gb -- [url]...1211389[/url]

Формат видео: AVI
Видео: 2100 Kbps, 720x416, 29.970 fps, XviD, 0.234 bit/pixel
Аудио: 128 Kbps, 44.1 KHz, 2 ch, MP3
General
Complete name : E:\Stop.Bullying.Me.and.Fucking.My.Mom.2009.avi
Format : AVI
Format/Info : Audio Video Interleave
File size : 397 MiB
Duration : 24mn 46s
Overall bit rate : 2 239 Kbps
Writing application : VirtualDubMod 1.5.10.3 | www.virtualdub-fr.org || (build 2550/release)
Writing library : VirtualDubMod build 2550/release

Video
ID : 0
Format : MPEG-4 Visual
Format profile : Advanced Simple@L5
Format settings, BVOP : Yes
Format settings, QPel : No
Format settings, GMC : No warppoints
Format settings, Matrix : Default (MPEG)
Codec ID : XVID
Codec ID/Hint : XviD
Duration : 24mn 46s
Bit rate : 2 100 Kbps
Width : 720 pixels
Height : 416 pixels
Display aspect ratio : 16:9
Frame rate : 29.970 fps
Resolution : 8 bits
Colorimetry : 4:2:0
Scan type : Progressive
Bits/(Pixel*Frame) : 0.234
Stream size : 372 MiB (94%)
Writing library : XviD 73

Audio
ID : 1
Format : MPEG Audio
Format version : Version 1
Format profile : Layer 3
Mode : Joint stereo
Format_Settings_ModeExtension : MS Stereo
Codec ID : 55
Codec ID/Hint : MP3
Duration : 24mn 46s
Bit rate mode : Constant
Bit rate : 128 Kbps
Channel(s) : 2 channels
Sampling rate : 44.1 KHz
Stream size : 22.7 MiB (6%)
Alignment : Split accross interleaves
Interleave, duration : 33 ms (1.00 video frame)
Interleave, preload duration : 500 ms
Трекер:  [ 05-Дек-2016 12:30 ]

Размер .torrent файла 16 KB


Размер: 397 MB
Хэш (hash) релиза: 881a382b3ca4492daf8e4d7ddf6478d24b77bc70
Подписка на обновления:

Торренты, похожие на Cherokee скачать торрент

Форум Название Автор Размер S L Добавлен
Сайтрипы 1991-2010 / SiteRip's 1991-2010 ·· Cherokee (Stop Bullying Me and Fucking My Mom) / Трахнутая мамка [2009 г., Big Tits, HDRip, 720p] Sakura 13545848131.26 GB 0 0 1375031127

21:05

28-Июл-13

Сайтрипы 1991-2010 / SiteRip's 1991-2010 ·· Cherokee (Stop Bullying Me and Fucking My Mom) / Семейный секс: Мамуля защищает своего сыночка [big tits, brunette, facial, milf, bubble butt, 1080p] HDV Sakura 22587171402.1 GB 0 0 1374986594

08:43

28-Июл-13

Еще никто не оставлял запись к записи скачать торрент Cherokee . Будь первым!

!Обратная связь
//main.js show_panel